I Live Alone E344 720p HDTV AAC H.265-IXD

I Live Alone E344 720p HDTV AAC H.265-IXD
Friday, 11:15 PM 75min 715.56MB

Overview:

I Live Alone is recognized as one of the "Real-Variety" show in Korean television. The program is unscripted with using documentary techniques with variety show elements, and also follows a similar format of reality television programs, familiar to the viewers of Infinite Challenge on same network,[2] and also some audiences in the West. Every Friday night, this programme shows selected Rainbow members' everyday lives, both in and out of their residing places. As proclaimed on its official homepage,[3] there are about 5 million 'single's in South Korea, and about one-third of South Korean entertainers are also in 'single' status. This programme is to recollect their daily lives, and form its unique sympathies among the singles within South Korea by showing celebrities' lives without significant filtering. Since its beginning, each hosts of this programme gathered to form a club called Rainbow

Video Info

Thumbnail:

thumbnail

Media Info:

General
Complete name                            : /indexdrama.com/I Live Alone E344 720p HDTV AAC H.265-IXD.mp4
Format                                   : MPEG-4
Format profile                           : Base Media
Codec ID                                 : isom (isom/iso2/mp41)
File size                                : 716 MiB
Duration                                 : 1 h 39 min
Overall bit rate                         : 1 006 kb/s
Encoded date                             : UTC 1904-01-01 00:00:00
Tagged date                              : UTC 1904-01-01 00:00:00
Writing application                      : Lavf57.71.100

Video
ID                                       : 1
Format                                   : HEVC
Format/Info                              : High Efficiency Video Coding
Format profile                           : [email protected]@Main
Codec ID                                 : hev1
Codec ID/Info                            : High Efficiency Video Coding
Duration                                 : 1 h 39 min
Bit rate                                 : 957 kb/s
Width                                    : 1 280 pixels
Height                                   : 720 pixels
Display aspect ratio                     : 16:9
Frame rate mode                          : Constant
Frame rate                               : 29.970 (30000/1001) FPS
Color space                              : YUV
Chroma subsampling                       : 4:2:0
Bit depth                                : 8 bits
Scan type                                : Progressive
Bits/(Pixel*Frame)                       : 0.035
Stream size                              : 680 MiB (95%)
Writing library                          : x265 2.4:[Linux][GCC 6.3.0][64 bit] 8bit
Encoding settings                        : cpuid=1050111 / frame-threads=8 / wpp / no-pmode / no-pme / no-psnr / no-ssim / log-level=2 / input-csp=1 / input-res=1280x720 / interlace=0 / total-frames=0 / level-idc=0 / high-tier=1 / uhd-bd=0 / ref=3 / no-allow-non-conformance / no-repeat-headers / annexb / no-aud / no-hrd / info / hash=0 / no-temporal-layers / open-gop / min-keyint=25 / keyint=250 / bframes=4 / b-adapt=2 / b-pyramid / bframe-bias=0 / rc-lookahead=20 / lookahead-slices=4 / scenecut=40 / no-intra-refresh / ctu=64 / min-cu-size=8 / no-rect / no-amp / max-tu-size=32 / tu-inter-depth=1 / tu-intra-depth=1 / limit-tu=0 / rdoq-level=0 / dynamic-rd=0.00 / no-ssim-rd / signhide / no-tskip / nr-intra=0 / nr-inter=0 / no-constrained-intra / strong-intra-smoothing / max-merge=2 / limit-refs=3 / no-limit-modes / me=1 / subme=2 / merange=57 / temporal-mvp / weightp / no-weightb / no-analyze-src-pics / deblock=0:0 / sao / no-sao-non-deblock / rd=3 / no-early-skip / rskip / no-fast-intra / no-tskip-fast / no-cu-lossless / no-b-intra / rdpenalty=0 / psy-rd=2.00 / psy-rdoq=0.00 / no-rd-refine / analysis-mode=0 / no-lossless / cbqpoffs=0 / crqpoffs=0 / rc=crf / crf=25.0 / qcomp=0.60 / qpstep=4 / stats-write=0 / stats-read=0 / ipratio=1.40 / pbratio=1.30 / aq-mode=1 / aq-strength=1.00 / cutree / zone-count=0 / no-strict-cbr / qg-size=32 / no-rc-grain / qpmax=69 / qpmin=0 / sar=1 / overscan=0 / videoformat=5 / range=0 / colorprim=2 / transfer=2 / colormatrix=2 / chromaloc=0 / display-window=0 / max-cll=0,0 / min-luma=0 / max-luma=255 / log2-max-poc-lsb=8 / vui-timing-info / vui-hrd-info / slices=1 / opt-qp-pps / opt-ref-list-length-pps / no-multi-pass-opt-rps / scenecut-bias=0.05 / no-opt-cu-delta-qp / no-aq-motion / no-hdr / no-hdr-opt / no-dhdr10-opt / refine-level=5 / no-limit-sao
Encoded date                             : UTC 1904-01-01 00:00:00
Tagged date                              : UTC 1904-01-01 00:00:00

Audio
ID                                       : 2
Format                                   : AAC
Format/Info                              : Advanced Audio Codec
Format profile                           : HE-AAC / LC
Codec ID                                 : 40
Duration                                 : 1 h 39 min
Duration_LastFrame                       : -23 ms
Bit rate mode                            : Constant
Bit rate                                 : 43.0 kb/s
Channel(s)                               : 2 channels
Channel positions                        : Front: L R
Sampling rate                            : 48.0 kHz / 24.0 kHz
Frame rate                               : 23.438 FPS (1024 spf)
Compression mode                         : Lossy
Stream size                              : 30.6 MiB (4%)
Default                                  : Yes
Alternate group                          : 1
Encoded date                             : UTC 1904-01-01 00:00:00
Tagged date                              : UTC 1904-01-01 00:00:00


Embed to your sites:

<iframe src="https://indexdrama.com/view/0897af0f14ae14f7a2034dfb85e40dd3f77df86c/raw" width="650" height="250" scrolling="no" frameborder="0"></iframe>
More Episode I Live Alone
I Live Alone E333 720p HDTV AAC H.265-IXD
2020-03-24 11:46:00 661.01MB
I Live Alone E334 720p HDTV AAC H.265-IXD
2020-03-24 17:55:46 665.98MB
I Live Alone E335 720p HDTV AAC H.265-IXD
2020-03-24 18:29:31 749.57MB
I Live Alone E336 720p HDTV AAC H.265-IXD
2020-03-24 15:45:47 672.56MB
I Live Alone E337 720p HDTV AAC H.265-IXD
2020-03-24 13:56:07 723.57MB
I Live Alone E338 720p HDTV AAC H.265-IXD
2020-03-24 17:31:52 733.43MB
I Live Alone E339 720p HDTV AAC H.265-IXD
2020-04-11 18:04:51 722.51MB
I Live Alone E340 720p HDTV AAC H.265-IXD
2020-04-11 20:34:52 723.78MB
I Live Alone E341 720p HDTV AAC H.265-IXD
2020-04-11 22:04:57 778.3MB
I Live Alone E342 720p HDTV AAC H.265-IXD
2020-04-18 17:31:50 738.64MB
I Live Alone E343 720p HDTV AAC H.265-IXD
2020-04-27 11:31:06 675.52MB
I Live Alone E345 720p HDTV AAC H.265-IXD
2020-05-22 16:02:48 767.3MB
I Live Alone E346 720p HDTV AAC H.265-IXD
2020-06-12 02:17:08 618.43MB
I Live Alone E347 720p HDTV AAC H.265-IXD
2020-06-12 01:27:44 568.27MB
I Live Alone E348 720p HDTV AAC H.265-IXD
2020-06-11 22:45:04 541.76MB
I Live Alone E349 720p HDTV AAC H.265-IXD
2020-06-13 23:18:32 543.57MB
I Live Alone E350 720p HDTV AAC H.265-IXD
2020-06-20 14:18:13 538.9MB
I Live Alone E351 720p HDTV AAC H.265-IXD
2020-06-27 11:18:05 438.29MB
I Live Alone E352 720p HDTV AAC H.265-IXD
2020-07-04 05:21:04 646.74MB
I Live Alone E353 720p HDTV AAC H.265-IXD
2020-07-11 14:20:47 628.74MB
I Live Alone E354 720p HDTV AAC H.265-IXD
2020-07-18 12:25:11 695.37MB