Once Again S01E85-E86 720p HDTV AAC H.265-IXD

Once Again S01E85-E86 720p HDTV AAC H.265-IXD
Sunday, 7:45 PM 35min 332.72MB

Overview:

About the turbulent divorce story of the Song family that ends in the discovery of romance and familial love. The Song family includes a frugal father, a cute but materialistic mother, and four adult children with their own quirks and family troubles.

Video Info

Thumbnail:

thumbnail

Media Info:

General
Complete name                            : /indexdrama.com/Once Again S01E85-E86 720p HDTV AAC H.265-IXD.mp4
Format                                   : MPEG-4
Format profile                           : Base Media
Codec ID                                 : isom (isom/iso2/mp41)
File size                                : 333 MiB
Duration                                 : 1 h 11 min
Overall bit rate                         : 654 kb/s
Encoded date                             : UTC 1904-01-01 00:00:00
Tagged date                              : UTC 1904-01-01 00:00:00
Writing application                      : Lavf57.71.100

Video
ID                                       : 1
Format                                   : HEVC
Format/Info                              : High Efficiency Video Coding
Format profile                           : [email protected]@Main
Codec ID                                 : hev1
Codec ID/Info                            : High Efficiency Video Coding
Duration                                 : 1 h 11 min
Bit rate                                 : 604 kb/s
Width                                    : 1 280 pixels
Height                                   : 720 pixels
Display aspect ratio                     : 16:9
Frame rate mode                          : Constant
Frame rate                               : 29.970 (30000/1001) FPS
Color space                              : YUV
Chroma subsampling                       : 4:2:0
Bit depth                                : 8 bits
Scan type                                : Progressive
Bits/(Pixel*Frame)                       : 0.022
Stream size                              : 308 MiB (92%)
Writing library                          : x265 2.4:[Linux][GCC 6.3.0][64 bit] 8bit
Encoding settings                        : cpuid=1050111 / frame-threads=8 / wpp / no-pmode / no-pme / no-psnr / no-ssim / log-level=2 / input-csp=1 / input-res=1280x720 / interlace=0 / total-frames=0 / level-idc=0 / high-tier=1 / uhd-bd=0 / ref=3 / no-allow-non-conformance / no-repeat-headers / annexb / no-aud / no-hrd / info / hash=0 / no-temporal-layers / open-gop / min-keyint=25 / keyint=250 / bframes=4 / b-adapt=2 / b-pyramid / bframe-bias=0 / rc-lookahead=20 / lookahead-slices=4 / scenecut=40 / no-intra-refresh / ctu=64 / min-cu-size=8 / no-rect / no-amp / max-tu-size=32 / tu-inter-depth=1 / tu-intra-depth=1 / limit-tu=0 / rdoq-level=0 / dynamic-rd=0.00 / no-ssim-rd / signhide / no-tskip / nr-intra=0 / nr-inter=0 / no-constrained-intra / strong-intra-smoothing / max-merge=2 / limit-refs=3 / no-limit-modes / me=1 / subme=2 / merange=57 / temporal-mvp / weightp / no-weightb / no-analyze-src-pics / deblock=0:0 / sao / no-sao-non-deblock / rd=3 / no-early-skip / rskip / no-fast-intra / no-tskip-fast / no-cu-lossless / no-b-intra / rdpenalty=0 / psy-rd=2.00 / psy-rdoq=0.00 / no-rd-refine / analysis-mode=0 / no-lossless / cbqpoffs=0 / crqpoffs=0 / rc=crf / crf=25.0 / qcomp=0.60 / qpstep=4 / stats-write=0 / stats-read=0 / ipratio=1.40 / pbratio=1.30 / aq-mode=1 / aq-strength=1.00 / cutree / zone-count=0 / no-strict-cbr / qg-size=32 / no-rc-grain / qpmax=69 / qpmin=0 / sar=1 / overscan=0 / videoformat=5 / range=0 / colorprim=2 / transfer=2 / colormatrix=2 / chromaloc=0 / display-window=0 / max-cll=0,0 / min-luma=0 / max-luma=255 / log2-max-poc-lsb=8 / vui-timing-info / vui-hrd-info / slices=1 / opt-qp-pps / opt-ref-list-length-pps / no-multi-pass-opt-rps / scenecut-bias=0.05 / no-opt-cu-delta-qp / no-aq-motion / no-hdr / no-hdr-opt / no-dhdr10-opt / refine-level=5 / no-limit-sao
Encoded date                             : UTC 1904-01-01 00:00:00
Tagged date                              : UTC 1904-01-01 00:00:00

Audio
ID                                       : 2
Format                                   : AAC
Format/Info                              : Advanced Audio Codec
Format profile                           : HE-AAC / LC
Codec ID                                 : 40
Duration                                 : 1 h 11 min
Duration_LastFrame                       : -1 ms
Bit rate mode                            : Constant
Bit rate                                 : 43.0 kb/s
Channel(s)                               : 2 channels
Channel positions                        : Front: L R
Sampling rate                            : 48.0 kHz / 24.0 kHz
Frame rate                               : 23.438 FPS (1024 spf)
Compression mode                         : Lossy
Stream size                              : 21.9 MiB (7%)
Default                                  : Yes
Alternate group                          : 1
Encoded date                             : UTC 1904-01-01 00:00:00
Tagged date                              : UTC 1904-01-01 00:00:00


Embed to your sites:

<iframe src="https://indexdrama.com/view/126775417b8e438c4f9af456fc43a18d2a982d14/raw" width="650" height="250" scrolling="no" frameborder="0"></iframe>
More Episode Once Again
Once Again S01E01-E02 720p HDTV AAC H.265-IXD
2020-03-29 00:01:31 395.16MB
Once Again S01E03-E04 720p HDTV AAC H.265-IXD
2020-03-29 23:59:41 351.66MB
Once Again S01E05-E06 720p HDTV AAC H.265-IXD
2020-04-04 20:06:39 354.34MB
Once Again S01E07-E08 720p HDTV AAC H.265-IXD
2020-04-05 23:09:50 379.44MB
Once Again S01E09-E10 720p HDTV AAC H.265-IXD
2020-04-12 02:55:50 380.22MB
Once Again S01E11-E12 720p HDTV AAC H.265-IXD
2020-04-12 23:30:34 426.36MB
Once Again S01E13-E14 720p HDTV AAC H.265-IXD
2020-04-19 02:08:19 399.25MB
Once Again S01E15-E16 720p HDTV AAC H.265-IXD
2020-04-19 20:09:00 392.9MB
Once Again S01E17-E18 720p HDTV AAC H.265-IXD
2020-04-25 21:11:27 381.96MB
Once Again S01E19-E20 720p HDTV AAC H.265-IXD
2020-04-26 17:07:47 366.25MB
Once Again S01E21-E22 720p HDTV AAC H.265-IXD
2020-05-03 01:06:21 401.94MB
Once Again S01E23-E24 720p HDTV AAC H.265-IXD
2020-05-03 21:05:36 375.08MB
Once Again S01E25-E26 720p HDTV AAC H.265-IXD
2020-05-09 22:04:08 330.79MB
Once Again S01E27-E28 720p HDTV AAC H.265-IXD
2020-05-10 23:08:17 383.93MB
Once Again S01E29-E30 720p HDTV AAC H.265-IXD
2020-05-16 17:05:54 364.19MB
Once Again S01E31-E32 720p HDTV AAC H.265-IXD
2020-05-18 03:17:21 360.48MB
Once Again S01E33-E34 720p HDTV AAC H.265-IXD
2020-05-23 20:09:50 375.34MB
Once Again S01E35-E36 720p HDTV AAC H.265-IXD
2020-05-25 02:09:45 337.75MB
Once Again S01E37-E38 720p HDTV AAC H.265-IXD
2020-05-30 20:08:19 343.45MB
Once Again S01E39-E40 720p HDTV AAC H.265-IXD
2020-06-01 01:00:30 347.95MB
Once Again S01E41-E42 720p HDTV AAC H.265-IXD
2020-06-06 23:09:17 388.24MB
Once Again S01E43-E44 720p HDTV AAC H.265-IXD
2020-06-08 00:05:04 372.42MB
Once Again S01E45-E46 720p HDTV AAC H.265-IXD
2020-06-13 17:03:07 314.88MB
Once Again S01E47-E48 720p HDTV AAC H.265-IXD
2020-06-14 23:55:35 330.42MB
Once Again S01E49-E50 720p HDTV AAC H.265-IXD
2020-06-20 20:06:19 383.49MB
Once Again S01E51-E52 720p HDTV AAC H.265-IXD
2020-06-21 20:11:06 362.84MB
Once Again S01E53-E54 720p HDTV AAC H.265-IXD
2020-06-27 20:04:50 338.82MB
Once Again S01E55-E56 720p HDTV AAC H.265-IXD
2020-06-28 23:27:06 366.13MB
Once Again S01E57-E58 720p HDTV AAC H.265-IXD
2020-07-05 01:43:32 350.55MB
Once Again S01E59-E60 720p HDTV AAC H.265-IXD
2020-07-05 20:05:31 362.9MB
Once Again S01E61-E62 720p HDTV AAC H.265-IXD
2020-07-11 22:05:23 347.97MB
Once Again S01E63-E64 720p HDTV AAC H.265-IXD
2020-07-12 23:52:26 314.31MB
Once Again S01E67-E68 720p HDTV AAC H.265-IXD
2020-07-19 23:48:42 331.15MB
Once Again S01E69-E70 720p HDTV AAC H.265-IXD
2020-07-26 12:02:48 324.77MB
Once Again S01E71-E72 720p HDTV AAC H.265-IXD
2020-07-26 22:40:59 343.05MB
Once Again S01E73-E74 720p HDTV AAC H.265-IXD
2020-08-01 21:03:23 340.55MB
Once Again S01E75-E76 720p HDTV AAC H.265-IXD
2020-08-02 22:28:53 345.24MB
Once Again S01E77-E78 720p HDTV AAC H.265-IXD
2020-08-08 20:07:57 368.2MB
Once Again S01E79-E80 720p HDTV AAC H.265-IXD
2020-08-09 21:56:37 324.46MB
Once Again S01E81-E82 720p HDTV AAC H.265-IXD
2020-08-16 00:19:22 284.67MB
Once Again S01E83-E84 720p HDTV AAC H.265-IXD
2020-08-16 22:49:08 284.7MB
Once Again S01E87-E88 720p HDTV AAC H.265-IXD
2020-08-23 23:03:51 319.79MB
Once Again S01E89-E90 720p HDTV AAC H.265-IXD
2020-08-29 17:04:28 319.46MB
Once Again S01E91-E92 720p HDTV AAC H.265-IXD
2020-08-30 21:05:52 339.3MB
Once Again S01E93-E94 720p HDTV AAC H.265-IXD
2020-09-05 22:07:18 329.43MB
Once Again S01E95-E96 720p HDTV AAC H.265-IXD
2020-09-06 20:07:24 345.25MB
Once Again S01E97-E98 720p HDTV AAC H.265-IXD
2020-09-12 23:11:59 386.14MB
Once Again S01E99-E100 720p HDTV AAC H.265-IXD
2020-09-14 02:35:37 405.07MB