Wanna Taste E79 720p HDTV AAC H.265-IXD

Wanna Taste E79 720p HDTV AAC H.265-IXD
Weekdays, 8:30 AM 35min 181.99MB

Overview:

Kang Hae-jin is a woman who puts her faith in something once she starts believing in it. She has a husband 6 years younger than her and puts him through law school. She also runs her father-in-law's failing restaurant and brings it to success.

Video Info

Thumbnail:

thumbnail

Media Info:

General
Complete name                            : /indexdrama.com/Wanna Taste E79 720p HDTV AAC H.265-IXD.mp4
Format                                   : MPEG-4
Format profile                           : Base Media
Codec ID                                 : isom (isom/iso2/mp41)
File size                                : 182 MiB
Duration                                 : 31 min 44 s
Overall bit rate                         : 802 kb/s
Encoded date                             : UTC 1904-01-01 00:00:00
Tagged date                              : UTC 1904-01-01 00:00:00
Writing application                      : Lavf57.71.100

Video
ID                                       : 1
Format                                   : HEVC
Format/Info                              : High Efficiency Video Coding
Format profile                           : [email protected]@Main
Codec ID                                 : hev1
Codec ID/Info                            : High Efficiency Video Coding
Duration                                 : 31 min 44 s
Bit rate                                 : 752 kb/s
Width                                    : 1 280 pixels
Height                                   : 720 pixels
Display aspect ratio                     : 16:9
Frame rate mode                          : Constant
Frame rate                               : 29.970 (30000/1001) FPS
Color space                              : YUV
Chroma subsampling                       : 4:2:0
Bit depth                                : 8 bits
Scan type                                : Progressive
Bits/(Pixel*Frame)                       : 0.027
Stream size                              : 171 MiB (94%)
Writing library                          : x265 2.4:[Linux][GCC 6.3.0][64 bit] 8bit
Encoding settings                        : cpuid=1050111 / frame-threads=8 / wpp / no-pmode / no-pme / no-psnr / no-ssim / log-level=2 / input-csp=1 / input-res=1280x720 / interlace=0 / total-frames=0 / level-idc=0 / high-tier=1 / uhd-bd=0 / ref=3 / no-allow-non-conformance / no-repeat-headers / annexb / no-aud / no-hrd / info / hash=0 / no-temporal-layers / open-gop / min-keyint=25 / keyint=250 / bframes=4 / b-adapt=2 / b-pyramid / bframe-bias=0 / rc-lookahead=20 / lookahead-slices=4 / scenecut=40 / no-intra-refresh / ctu=64 / min-cu-size=8 / no-rect / no-amp / max-tu-size=32 / tu-inter-depth=1 / tu-intra-depth=1 / limit-tu=0 / rdoq-level=0 / dynamic-rd=0.00 / no-ssim-rd / signhide / no-tskip / nr-intra=0 / nr-inter=0 / no-constrained-intra / strong-intra-smoothing / max-merge=2 / limit-refs=3 / no-limit-modes / me=1 / subme=2 / merange=57 / temporal-mvp / weightp / no-weightb / no-analyze-src-pics / deblock=0:0 / sao / no-sao-non-deblock / rd=3 / no-early-skip / rskip / no-fast-intra / no-tskip-fast / no-cu-lossless / no-b-intra / rdpenalty=0 / psy-rd=2.00 / psy-rdoq=0.00 / no-rd-refine / analysis-mode=0 / no-lossless / cbqpoffs=0 / crqpoffs=0 / rc=crf / crf=25.0 / qcomp=0.60 / qpstep=4 / stats-write=0 / stats-read=0 / ipratio=1.40 / pbratio=1.30 / aq-mode=1 / aq-strength=1.00 / cutree / zone-count=0 / no-strict-cbr / qg-size=32 / no-rc-grain / qpmax=69 / qpmin=0 / sar=1 / overscan=0 / videoformat=5 / range=0 / colorprim=2 / transfer=2 / colormatrix=2 / chromaloc=0 / display-window=0 / max-cll=0,0 / min-luma=0 / max-luma=255 / log2-max-poc-lsb=8 / vui-timing-info / vui-hrd-info / slices=1 / opt-qp-pps / opt-ref-list-length-pps / no-multi-pass-opt-rps / scenecut-bias=0.05 / no-opt-cu-delta-qp / no-aq-motion / no-hdr / no-hdr-opt / no-dhdr10-opt / refine-level=5 / no-limit-sao
Encoded date                             : UTC 1904-01-01 00:00:00
Tagged date                              : UTC 1904-01-01 00:00:00

Audio
ID                                       : 2
Format                                   : AAC
Format/Info                              : Advanced Audio Codec
Format profile                           : HE-AAC / LC
Codec ID                                 : 40
Duration                                 : 31 min 44 s
Duration_LastFrame                       : -1 ms
Bit rate mode                            : Constant
Bit rate                                 : 43.0 kb/s
Channel(s)                               : 2 channels
Channel positions                        : Front: L R
Sampling rate                            : 48.0 kHz / 24.0 kHz
Frame rate                               : 23.438 FPS (1024 spf)
Compression mode                         : Lossy
Stream size                              : 9.76 MiB (5%)
Default                                  : Yes
Alternate group                          : 1
Encoded date                             : UTC 1904-01-01 00:00:00
Tagged date                              : UTC 1904-01-01 00:00:00


Embed to your sites:

<iframe src="https://indexdrama.com/view/1611987477c6c8238ad13027a1e1f29549e4d853/raw" width="650" height="250" scrolling="no" frameborder="0"></iframe>
More Episode Wanna Taste?
Wanna Taste E100 720p HDTV AAC H.265-IXD
2020-03-30 23:30:35 190.67MB
Wanna Taste E101 720p HDTV AAC H.265-IXD
2020-04-01 01:31:43 213.81MB
Wanna Taste E102 720p HDTV AAC H.265-IXD
2020-04-01 23:31:26 186MB
Wanna Taste E103 720p HDTV AAC H.265-IXD
2020-04-03 01:31:17 199.11MB
Wanna Taste E104 720p HDTV AAC H.265-IXD
2020-04-04 02:35:47 218.62MB
Wanna Taste E105 720p HDTV AAC H.265-IXD
2020-04-06 23:30:28 194.12MB
Wanna Taste E106 720p HDTV AAC H.265-IXD
2020-04-08 03:30:12 182.63MB
Wanna Taste E107 720p HDTV AAC H.265-IXD
2020-04-08 23:30:54 188.07MB
Wanna Taste E108 720p HDTV AAC H.265-IXD
2020-04-10 00:31:14 184.43MB
Wanna Taste E109 720p HDTV AAC H.265-IXD
2020-04-10 22:30:44 189.74MB
Wanna Taste E110 720p HDTV AAC H.265-IXD
2020-04-13 23:30:27 186.01MB
Wanna Taste E111 720p HDTV AAC H.265-IXD
2020-04-14 22:30:21 182.89MB
Wanna Taste E112 720p HDTV AAC H.265-IXD
2020-04-16 00:28:58 174.36MB
Wanna Taste E113 720p HDTV AAC H.265-IXD
2020-04-17 00:30:13 185.18MB
Wanna Taste E114 720p HDTV AAC H.265-IXD
2020-04-17 23:29:41 164.25MB
Wanna Taste E115 720p HDTV AAC H.265-IXD
2020-04-21 01:11:17 188.55MB
Wanna Taste E116 720p HDTV AAC H.265-IXD
2020-04-21 22:29:27 196.25MB
Wanna Taste E117 720p HDTV AAC H.265-IXD
2020-04-23 03:31:49 190.21MB
Wanna Taste E118 720p HDTV AAC H.265-IXD
2020-04-23 17:30:38 188.5MB
Wanna Taste E119 720p HDTV AAC H.265-IXD
2020-04-24 13:31:26 184.59MB
Wanna Taste E120 720p HDTV AAC H.265-IXD
2020-04-27 16:32:15 172.78MB
Wanna Taste E121 720p HDTV AAC H.265-IXD
2020-04-28 16:29:46 182.36MB
Wanna Taste E122 720p HDTV AAC H.265-IXD
2020-04-29 16:30:36 208.28MB
Wanna Taste E123 720p HDTV AAC H.265-IXD
2020-04-30 13:30:48 205.53MB
Wanna Taste E124 720p HDTV AAC H.265-IXD
2020-05-01 13:33:52 231.88MB
Wanna Taste E77 720p HDTV AAC H.265-IXD
2020-03-05 11:31:35 227.2MB
Wanna Taste E78 720p HDTV AAC H.265-IXD
2020-03-04 15:30:42 191.52MB
Wanna Taste E80 720p HDTV AAC H.265-IXD
2020-03-05 15:57:05 188.1MB
Wanna Taste E81 720p HDTV AAC H.265-IXD
2020-03-05 03:57:40 189.08MB
Wanna Taste E82 720p HDTV AAC H.265-IXD
2020-03-05 01:29:35 171.42MB
Wanna Taste E83 720p HDTV AAC H.265-IXD
2020-03-05 20:30:25 182.32MB
Wanna Taste E84 720p HDTV AAC H.265-IXD
2020-03-06 23:31:06 203.92MB
Wanna Taste E85 720p HDTV AAC H.265-IXD
2020-03-10 00:26:17 181.98MB
Wanna Taste E86 720p HDTV AAC H.265-IXD
2020-03-11 00:32:22 227.33MB
Wanna Taste E87 720p HDTV AAC H.265-IXD
2020-03-11 19:30:27 183.39MB
Wanna Taste E88 720p HDTV AAC H.265-IXD
2020-03-13 00:30:11 168.77MB
Wanna Taste E89 720p HDTV AAC H.265-IXD
2020-03-13 22:30:00 175.59MB
Wanna Taste E90 720p HDTV AAC H.265-IXD
2020-03-16 21:30:25 182.94MB
Wanna Taste E91 720p HDTV AAC H.265-IXD
2020-03-17 22:30:38 185.69MB
Wanna Taste E92 720p HDTV AAC H.265-IXD
2020-03-18 20:30:30 182.23MB
Wanna Taste E93 720p HDTV AAC H.265-IXD
2020-03-19 22:30:46 168MB
Wanna Taste E94 720p HDTV AAC H.265-IXD
2020-03-20 23:37:38 165.01MB
Wanna Taste E95 720p HDTV AAC H.265-IXD
2020-03-23 22:30:14 170.05MB
Wanna Taste E96 720p HDTV AAC H.265-IXD
2020-03-25 00:30:24 180.21MB
Wanna Taste E97 720p HDTV AAC H.265-IXD
2020-03-25 23:30:29 174.78MB
Wanna Taste E98 720p HDTV AAC H.265-IXD
2020-03-27 01:30:42 166.23MB
Wanna Taste E99 720p HDTV AAC H.265-IXD
2020-03-27 19:31:23 189.49MB