My Wonderful Life E11 720p HDTV AAC H.265-IXD

My Wonderful Life E11 720p HDTV AAC H.265-IXD
Weekdays, 7:15 PM 40min 136.29MB

Overview:

A tough and determined young mother that couldn't be unluckier becomes part of a chaebol family overnight. On the other hand, a woman that lived her whole life as a chaebol suddenly finds herself having to live a downgraded life as an ordinary person. This is the story of these two women and their families! Bok-hee has a scum of a husband and greedy, immature children. She drives a cabbage truck all over Korea to survive and constantly pushes forward, but all she faces are hardships of life. When it felt like there was no light at the end of the tunnel, she meets her birth mother. The grateful woman of Jeil Motors that helped her get back on her feet when she was in despair turns out to be her mother. Sang-ah, whom she was jealous of, has actually been living Bok-hee's life!

Video Info

Thumbnail:

thumbnail

Media Info:

General
Complete name                            : /indexdrama.com/My Wonderful Life E11 720p HDTV AAC H.265-IXD.mp4
Format                                   : MPEG-4
Format profile                           : Base Media
Codec ID                                 : isom (isom/iso2/mp41)
File size                                : 136 MiB
Duration                                 : 29 min 19 s
Overall bit rate                         : 650 kb/s
Encoded date                             : UTC 1904-01-01 00:00:00
Tagged date                              : UTC 1904-01-01 00:00:00
Writing application                      : Lavf57.71.100

Video
ID                                       : 1
Format                                   : HEVC
Format/Info                              : High Efficiency Video Coding
Format profile                           : [email protected]@Main
Codec ID                                 : hev1
Codec ID/Info                            : High Efficiency Video Coding
Duration                                 : 29 min 19 s
Bit rate                                 : 600 kb/s
Width                                    : 1 280 pixels
Height                                   : 720 pixels
Display aspect ratio                     : 16:9
Frame rate mode                          : Constant
Frame rate                               : 29.970 (30000/1001) FPS
Color space                              : YUV
Chroma subsampling                       : 4:2:0
Bit depth                                : 8 bits
Scan type                                : Progressive
Bits/(Pixel*Frame)                       : 0.022
Stream size                              : 126 MiB (92%)
Writing library                          : x265 2.4:[Linux][GCC 6.3.0][64 bit] 8bit
Encoding settings                        : cpuid=1050111 / frame-threads=8 / wpp / no-pmode / no-pme / no-psnr / no-ssim / log-level=2 / input-csp=1 / input-res=1280x720 / interlace=0 / total-frames=0 / level-idc=0 / high-tier=1 / uhd-bd=0 / ref=3 / no-allow-non-conformance / no-repeat-headers / annexb / no-aud / no-hrd / info / hash=0 / no-temporal-layers / open-gop / min-keyint=25 / keyint=250 / bframes=4 / b-adapt=2 / b-pyramid / bframe-bias=0 / rc-lookahead=20 / lookahead-slices=4 / scenecut=40 / no-intra-refresh / ctu=64 / min-cu-size=8 / no-rect / no-amp / max-tu-size=32 / tu-inter-depth=1 / tu-intra-depth=1 / limit-tu=0 / rdoq-level=0 / dynamic-rd=0.00 / no-ssim-rd / signhide / no-tskip / nr-intra=0 / nr-inter=0 / no-constrained-intra / strong-intra-smoothing / max-merge=2 / limit-refs=3 / no-limit-modes / me=1 / subme=2 / merange=57 / temporal-mvp / weightp / no-weightb / no-analyze-src-pics / deblock=0:0 / sao / no-sao-non-deblock / rd=3 / no-early-skip / rskip / no-fast-intra / no-tskip-fast / no-cu-lossless / no-b-intra / rdpenalty=0 / psy-rd=2.00 / psy-rdoq=0.00 / no-rd-refine / analysis-mode=0 / no-lossless / cbqpoffs=0 / crqpoffs=0 / rc=crf / crf=25.0 / qcomp=0.60 / qpstep=4 / stats-write=0 / stats-read=0 / ipratio=1.40 / pbratio=1.30 / aq-mode=1 / aq-strength=1.00 / cutree / zone-count=0 / no-strict-cbr / qg-size=32 / no-rc-grain / qpmax=69 / qpmin=0 / sar=1 / overscan=0 / videoformat=5 / range=0 / colorprim=2 / transfer=2 / colormatrix=2 / chromaloc=0 / display-window=0 / max-cll=0,0 / min-luma=0 / max-luma=255 / log2-max-poc-lsb=8 / vui-timing-info / vui-hrd-info / slices=1 / opt-qp-pps / opt-ref-list-length-pps / no-multi-pass-opt-rps / scenecut-bias=0.05 / no-opt-cu-delta-qp / no-aq-motion / no-hdr / no-hdr-opt / no-dhdr10-opt / refine-level=5 / no-limit-sao
Encoded date                             : UTC 1904-01-01 00:00:00
Tagged date                              : UTC 1904-01-01 00:00:00

Audio
ID                                       : 2
Format                                   : AAC
Format/Info                              : Advanced Audio Codec
Format profile                           : HE-AAC / LC
Codec ID                                 : 40
Duration                                 : 29 min 19 s
Duration_LastFrame                       : -23 ms
Bit rate mode                            : Constant
Bit rate                                 : 43.0 kb/s
Channel(s)                               : 2 channels
Channel positions                        : Front: L R
Sampling rate                            : 48.0 kHz / 24.0 kHz
Frame rate                               : 23.438 FPS (1024 spf)
Compression mode                         : Lossy
Stream size                              : 9.02 MiB (7%)
Default                                  : Yes
Alternate group                          : 1
Encoded date                             : UTC 1904-01-01 00:00:00
Tagged date                              : UTC 1904-01-01 00:00:00


Embed to your sites:

<iframe src="https://indexdrama.com/view/407a736570938479751c689d565f0636c7193cb2/raw" width="650" height="250" scrolling="no" frameborder="0"></iframe>
More Episode My Wonderful Life (2020)
My Wonderful Life E12 720p HDTV AAC H.265-IXD
2020-07-15 01:26:43 127.9MB
My Wonderful Life E13 720p HDTV AAC H.265-IXD
2020-07-15 23:26:18 114.96MB
My Wonderful Life E14 720p HDTV AAC H.265-IXD
2020-07-16 22:36:10 130.7MB
My Wonderful Life E15 720p HDTV AAC H.265-IXD
2020-07-17 23:30:35 111.71MB
My Wonderful Life E16 720p HDTV AAC H.265-IXD
2020-07-20 19:27:06 123.85MB
My Wonderful Life E17 720p HDTV AAC H.265-IXD
2020-07-21 22:27:59 139.14MB
My Wonderful Life E18 720p HDTV AAC H.265-IXD
2020-07-22 23:01:29 131.63MB
My Wonderful Life E20 720p HDTV AAC H.265-IXD
2020-07-26 14:27:08 114.84MB
My Wonderful Life E21 720p HDTV AAC H.265-IXD
2020-07-27 23:27:13 117.59MB
My Wonderful Life E22 720p HDTV AAC H.265-IXD
2020-07-29 00:25:36 109.81MB
My Wonderful Life E23 720p HDTV AAC H.265-IXD
2020-07-29 23:25:26 108.16MB
My Wonderful Life E24 720p HDTV AAC H.265-IXD
2020-07-31 00:24:58 112.29MB
My Wonderful Life E25 720p HDTV AAC H.265-IXD
2020-07-31 22:27:03 124.86MB
My Wonderful Life E26 720p HDTV AAC H.265-IXD
2020-08-04 00:26:33 120.47MB
My Wonderful Life E27 720p HDTV AAC H.265-IXD
2020-08-04 22:26:58 127.56MB
My Wonderful Life E28 720p HDTV AAC H.265-IXD
2020-08-05 23:28:26 142.44MB
My Wonderful Life E29 720p HDTV AAC H.265-IXD
2020-08-06 20:26:51 123.23MB
My Wonderful Life E30 720p HDTV AAC H.265-IXD
2020-08-08 01:25:18 112.75MB
My Wonderful Life E31 720p HDTV AAC H.265-IXD
2020-08-11 01:04:08 127.95MB
My Wonderful Life E32 720p HDTV AAC H.265-IXD
2020-08-11 22:25:42 127.67MB