Fatal Promise E09 720p HDTV AAC H.265-IXD

Fatal Promise E09 720p HDTV AAC H.265-IXD
, min 163.42MB
Video Info

Thumbnail:

thumbnail

Media Info:

General
Complete name                            : /indexdrama.com/Fatal Promise E09 720p HDTV AAC H.265-IXD.mp4
Format                                   : MPEG-4
Format profile                           : Base Media
Codec ID                                 : isom (isom/iso2/mp41)
File size                                : 163 MiB
Duration                                 : 34 min 28 s
Overall bit rate                         : 663 kb/s
Encoded date                             : UTC 1904-01-01 00:00:00
Tagged date                              : UTC 1904-01-01 00:00:00
Writing application                      : Lavf57.71.100

Video
ID                                       : 1
Format                                   : HEVC
Format/Info                              : High Efficiency Video Coding
Format profile                           : [email protected]@Main
Codec ID                                 : hev1
Codec ID/Info                            : High Efficiency Video Coding
Duration                                 : 34 min 28 s
Bit rate                                 : 613 kb/s
Width                                    : 1 280 pixels
Height                                   : 720 pixels
Display aspect ratio                     : 16:9
Frame rate mode                          : Constant
Frame rate                               : 29.970 (30000/1001) FPS
Color space                              : YUV
Chroma subsampling                       : 4:2:0
Bit depth                                : 8 bits
Scan type                                : Progressive
Bits/(Pixel*Frame)                       : 0.022
Stream size                              : 151 MiB (93%)
Writing library                          : x265 2.4:[Linux][GCC 6.3.0][64 bit] 8bit
Encoding settings                        : cpuid=1050111 / frame-threads=8 / wpp / no-pmode / no-pme / no-psnr / no-ssim / log-level=2 / input-csp=1 / input-res=1280x720 / interlace=0 / total-frames=0 / level-idc=0 / high-tier=1 / uhd-bd=0 / ref=3 / no-allow-non-conformance / no-repeat-headers / annexb / no-aud / no-hrd / info / hash=0 / no-temporal-layers / open-gop / min-keyint=25 / keyint=250 / bframes=4 / b-adapt=2 / b-pyramid / bframe-bias=0 / rc-lookahead=20 / lookahead-slices=4 / scenecut=40 / no-intra-refresh / ctu=64 / min-cu-size=8 / no-rect / no-amp / max-tu-size=32 / tu-inter-depth=1 / tu-intra-depth=1 / limit-tu=0 / rdoq-level=0 / dynamic-rd=0.00 / no-ssim-rd / signhide / no-tskip / nr-intra=0 / nr-inter=0 / no-constrained-intra / strong-intra-smoothing / max-merge=2 / limit-refs=3 / no-limit-modes / me=1 / subme=2 / merange=57 / temporal-mvp / weightp / no-weightb / no-analyze-src-pics / deblock=0:0 / sao / no-sao-non-deblock / rd=3 / no-early-skip / rskip / no-fast-intra / no-tskip-fast / no-cu-lossless / no-b-intra / rdpenalty=0 / psy-rd=2.00 / psy-rdoq=0.00 / no-rd-refine / analysis-mode=0 / no-lossless / cbqpoffs=0 / crqpoffs=0 / rc=crf / crf=25.0 / qcomp=0.60 / qpstep=4 / stats-write=0 / stats-read=0 / ipratio=1.40 / pbratio=1.30 / aq-mode=1 / aq-strength=1.00 / cutree / zone-count=0 / no-strict-cbr / qg-size=32 / no-rc-grain / qpmax=69 / qpmin=0 / sar=1 / overscan=0 / videoformat=5 / range=0 / colorprim=2 / transfer=2 / colormatrix=2 / chromaloc=0 / display-window=0 / max-cll=0,0 / min-luma=0 / max-luma=255 / log2-max-poc-lsb=8 / vui-timing-info / vui-hrd-info / slices=1 / opt-qp-pps / opt-ref-list-length-pps / no-multi-pass-opt-rps / scenecut-bias=0.05 / no-opt-cu-delta-qp / no-aq-motion / no-hdr / no-hdr-opt / no-dhdr10-opt / refine-level=5 / no-limit-sao
Encoded date                             : UTC 1904-01-01 00:00:00
Tagged date                              : UTC 1904-01-01 00:00:00

Audio
ID                                       : 2
Format                                   : AAC
Format/Info                              : Advanced Audio Codec
Format profile                           : HE-AAC / LC
Codec ID                                 : 40
Duration                                 : 34 min 28 s
Duration_LastFrame                       : -23 ms
Bit rate mode                            : Constant
Bit rate                                 : 43.0 kb/s
Channel(s)                               : 2 channels
Channel positions                        : Front: L R
Sampling rate                            : 48.0 kHz / 24.0 kHz
Frame rate                               : 23.438 FPS (1024 spf)
Compression mode                         : Lossy
Stream size                              : 10.6 MiB (6%)
Default                                  : Yes
Alternate group                          : 1
Encoded date                             : UTC 1904-01-01 00:00:00
Tagged date                              : UTC 1904-01-01 00:00:00


Embed to your sites:

<iframe src="https://indexdrama.com/view/664a4c1352c027a9a58740c65b6dd74479110884/raw" width="650" height="250" scrolling="no" frameborder="0"></iframe>
More Episode
18 Again S01E01 720p HDTV AAC H.265-IXD
2020-09-22 02:58:27 247.06MB
18 Again S01E02 720p HDTV AAC H.265-IXD
2020-09-23 01:56:53 229.99MB
Brilliant Heritage E01 720p HDTV AAC H.265-IXD
2020-04-21 03:46:04 169.91MB
Brilliant Heritage E02 720p HDTV AAC H.265-IXD
2020-04-22 01:28:51 160.35MB
Brilliant Heritage E03 720p HDTV AAC H.265-IXD
2020-04-23 04:29:11 174.36MB
Brilliant Heritage E04 720p HDTV AAC H.265-IXD
2020-04-23 23:29:36 180.26MB
Brilliant Heritage E05 720p HDTV AAC H.265-IXD
2020-04-25 00:30:33 158.77MB
BTS In The SOOP S01E01 720p HDTV AAC H.265-IXD
2020-09-26 09:56:22 376.84MB
BTS In The SOOP S01E02 720p HDTV AAC H.265-IXD
2020-09-26 08:53:59 326.62MB
BTS In The SOOP S01E04 720p HDTV AAC H.265-IXD
2020-09-26 12:52:44 346.46MB
BTS In The SOOP S01E05 720p HDTV AAC H.265-IXD
2020-09-26 07:58:29 410.88MB
BTS In The SOOP S01E06 720p HDTV AAC H.265-IXD
2020-09-26 11:55:29 389.54MB
Fatal Promise E06 720p HDTV AAC H.265-IXD
2020-04-07 06:55:38 134.01MB
Fatal Promise E07 720p HDTV AAC H.265-IXD
2020-04-08 01:32:29 147.75MB
Fatal Promise E08 720p HDTV AAC H.265-IXD
2020-04-09 01:31:46 153.48MB
Fatal Promise E10 720p HDTV AAC H.265-IXD
2020-04-10 23:31:09 132.08MB
Fatal Promise E11 720p HDTV AAC H.265-IXD
2020-04-13 22:33:08 153.21MB
Fatal Promise E12 720p HDTV AAC H.265-IXD
2020-04-15 01:32:23 155.76MB
Fatal Promise E13 720p HDTV AAC H.265-IXD
2020-04-15 22:31:09 154.43MB
Fatal Promise E14 720p HDTV AAC H.265-IXD
2020-04-17 01:31:50 147.27MB
Fatal Promise E15 720p HDTV AAC H.265-IXD
2020-04-18 00:32:35 165.15MB
Fatal Promise E16 720p HDTV AAC H.265-IXD
2020-04-20 21:56:06 157.91MB
Fatal Promise E17 720p HDTV AAC H.265-IXD
2020-04-22 00:31:29 139.8MB
Fatal Promise E18 720p HDTV AAC H.265-IXD
2020-04-23 01:32:28 148.31MB
Fatal Promise E19 720p HDTV AAC H.265-IXD
2020-04-23 22:32:58 148.58MB
Fatal Promise E20 720p HDTV AAC H.265-IXD
2020-04-24 23:38:59 140.11MB
Hometown Flex S01E01 720p HDTV AAC H.265-IXD
2020-07-14 00:28:25 906.06MB
Man in a Veil E01 720p HDTV AAC H.265-IXD
2020-09-08 00:33:34 187.95MB
Man in a Veil E02 720p HDTV AAC H.265-IXD
2020-09-09 00:34:49 168.49MB
Man in a Veil E03 720p HDTV AAC H.265-IXD
2020-09-09 19:31:59 158.64MB
Man in a Veil E04 720p HDTV AAC H.265-IXD
2020-09-10 23:34:05 189.39MB
Man in a Veil E05 720p HDTV AAC H.265-IXD
2020-09-11 23:34:42 190.73MB
Memorials S01E01 720p HDTV AAC H.265-IXD
2020-07-02 01:49:10 209.79MB
My Wonderful Life E01 720p HDTV AAC H.265-IXD
2020-06-29 21:30:24 187.63MB
My Wonderful Life E02 720p HDTV AAC H.265-IXD
2020-06-30 23:31:26 187.16MB
My Wonderful Life E03 720p HDTV AAC H.265-IXD
2020-07-01 23:28:10 135.44MB
My Wonderful Life E04 720p HDTV AAC H.265-IXD
2020-07-02 22:29:01 162.89MB
My Wonderful Life E05 720p HDTV AAC H.265-IXD
2020-07-03 20:27:13 124.07MB
My Wonderful Life E06 720p HDTV AAC H.265-IXD
2020-07-06 22:27:26 131.94MB
My Wonderful Life E07 720p HDTV AAC H.265-IXD
2020-07-07 23:27:55 143.11MB
My Wonderful Life E08 720p HDTV AAC H.265-IXD
2020-07-09 00:27:42 129.44MB
My Wonderful Life E09 720p HDTV AAC H.265-IXD
2020-07-09 22:28:20 142.09MB
My Wonderful Life E10 720p HDTV AAC H.265-IXD
2020-07-11 00:27:45 136.4MB
The Sixth Sense S01E01 720p HDTV AAC H.265-IXD
2020-09-03 23:34:45 900.12MB