Weekly Idol E458 720p HDTV AAC H.265-IXD

Weekly Idol E458 720p HDTV AAC H.265-IXD
Wednesday, 6:00 PM 60min 504.59MB

Overview:

Weekly Idol is a South Korean variety show that debuted in 2011. The show was hosted by comedian Jeong Hyeong-don and rapper Defconn. Lee Sang-min, Yoo Se-yoon and Kim Shin-young have been selected as the new hosts of the show.

Video Info

Thumbnail:

thumbnail

Media Info:

General
Complete name                            : /indexdrama.com/Weekly Idol E458 720p HDTV AAC H.265-IXD.mp4
Format                                   : MPEG-4
Format profile                           : Base Media
Codec ID                                 : isom (isom/iso2/mp41)
File size                                : 505 MiB
Duration                                 : 54 min 49 s
Overall bit rate                         : 1 287 kb/s
Encoded date                             : UTC 1904-01-01 00:00:00
Tagged date                              : UTC 1904-01-01 00:00:00
Writing application                      : Lavf57.71.100

Video
ID                                       : 1
Format                                   : HEVC
Format/Info                              : High Efficiency Video Coding
Format profile                           : [email protected]@Main
Codec ID                                 : hev1
Codec ID/Info                            : High Efficiency Video Coding
Duration                                 : 54 min 49 s
Bit rate                                 : 1 238 kb/s
Width                                    : 1 280 pixels
Height                                   : 720 pixels
Display aspect ratio                     : 16:9
Frame rate mode                          : Constant
Frame rate                               : 29.970 (30000/1001) FPS
Color space                              : YUV
Chroma subsampling                       : 4:2:0
Bit depth                                : 8 bits
Scan type                                : Progressive
Bits/(Pixel*Frame)                       : 0.045
Stream size                              : 485 MiB (96%)
Writing library                          : x265 2.4:[Linux][GCC 6.3.0][64 bit] 8bit
Encoding settings                        : cpuid=1050111 / frame-threads=8 / wpp / no-pmode / no-pme / no-psnr / no-ssim / log-level=2 / input-csp=1 / input-res=1280x720 / interlace=0 / total-frames=0 / level-idc=0 / high-tier=1 / uhd-bd=0 / ref=3 / no-allow-non-conformance / no-repeat-headers / annexb / no-aud / no-hrd / info / hash=0 / no-temporal-layers / open-gop / min-keyint=25 / keyint=250 / bframes=4 / b-adapt=2 / b-pyramid / bframe-bias=0 / rc-lookahead=20 / lookahead-slices=4 / scenecut=40 / no-intra-refresh / ctu=64 / min-cu-size=8 / no-rect / no-amp / max-tu-size=32 / tu-inter-depth=1 / tu-intra-depth=1 / limit-tu=0 / rdoq-level=0 / dynamic-rd=0.00 / no-ssim-rd / signhide / no-tskip / nr-intra=0 / nr-inter=0 / no-constrained-intra / strong-intra-smoothing / max-merge=2 / limit-refs=3 / no-limit-modes / me=1 / subme=2 / merange=57 / temporal-mvp / weightp / no-weightb / no-analyze-src-pics / deblock=0:0 / sao / no-sao-non-deblock / rd=3 / no-early-skip / rskip / no-fast-intra / no-tskip-fast / no-cu-lossless / no-b-intra / rdpenalty=0 / psy-rd=2.00 / psy-rdoq=0.00 / no-rd-refine / analysis-mode=0 / no-lossless / cbqpoffs=0 / crqpoffs=0 / rc=crf / crf=25.0 / qcomp=0.60 / qpstep=4 / stats-write=0 / stats-read=0 / ipratio=1.40 / pbratio=1.30 / aq-mode=1 / aq-strength=1.00 / cutree / zone-count=0 / no-strict-cbr / qg-size=32 / no-rc-grain / qpmax=69 / qpmin=0 / sar=1 / overscan=0 / videoformat=5 / range=0 / colorprim=2 / transfer=2 / colormatrix=2 / chromaloc=0 / display-window=0 / max-cll=0,0 / min-luma=0 / max-luma=255 / log2-max-poc-lsb=8 / vui-timing-info / vui-hrd-info / slices=1 / opt-qp-pps / opt-ref-list-length-pps / no-multi-pass-opt-rps / scenecut-bias=0.05 / no-opt-cu-delta-qp / no-aq-motion / no-hdr / no-hdr-opt / no-dhdr10-opt / refine-level=5 / no-limit-sao
Encoded date                             : UTC 1904-01-01 00:00:00
Tagged date                              : UTC 1904-01-01 00:00:00

Audio
ID                                       : 2
Format                                   : AAC
Format/Info                              : Advanced Audio Codec
Format profile                           : HE-AAC / LC
Codec ID                                 : 40
Duration                                 : 54 min 49 s
Duration_LastFrame                       : -1 ms
Bit rate mode                            : Constant
Bit rate                                 : 43.0 kb/s
Channel(s)                               : 2 channels
Channel positions                        : Front: L R
Sampling rate                            : 48.0 kHz / 24.0 kHz
Frame rate                               : 23.438 FPS (1024 spf)
Compression mode                         : Lossy
Stream size                              : 16.9 MiB (3%)
Default                                  : Yes
Alternate group                          : 1
Encoded date                             : UTC 1904-01-01 00:00:00
Tagged date                              : UTC 1904-01-01 00:00:00


Embed to your sites:

<iframe src="https://indexdrama.com/view/6ed607fafe04a1e027e9bee9dba7bb86b6999b3f/raw" width="650" height="250" scrolling="no" frameborder="0"></iframe>
More Episode Weekly Idol
Weekly Idol E447 720p HDTV AAC H.265-IXD
2020-03-03 16:42:40 398.82MB
Weekly Idol E448 720p HDTV AAC H.265-IXD
2020-03-03 02:17:37 524.75MB
Weekly Idol E449 720p HDTV AAC H.265-IXD
2020-03-04 16:47:48 476.37MB
Weekly Idol E450 720p HDTV AAC H.265-IXD
2020-03-12 02:47:24 487.27MB
Weekly Idol E451 720p HDTV AAC H.265-IXD
2020-03-18 22:44:29 374.05MB
Weekly Idol E452 720p HDTV AAC H.265-IXD
2020-03-25 20:46:00 416.23MB
Weekly Idol E453 720p HDTV AAC H.265-IXD
2020-04-02 03:48:27 510.46MB
Weekly Idol E454 720p HDTV AAC H.265-IXD
2020-04-09 03:45:36 404.51MB
Weekly Idol E455 720p HDTV AAC H.265-IXD
2020-04-16 01:47:06 444.25MB
Weekly Idol E456 720p HDTV AAC H.265-IXD
2020-04-22 21:52:48 466.75MB
Weekly Idol E457 720p HDTV AAC H.265-IXD
2020-04-29 17:51:39 498.96MB
Weekly Idol E459 720p HDTV AAC H.265-IXD
2020-05-13 20:50:48 513.3MB
Weekly Idol E460 720p HDTV AAC H.265-IXD
2020-05-20 22:51:25 452.54MB
Weekly Idol E461 720p HDTV AAC H.265-IXD
2020-05-28 00:41:41 394.02MB
Weekly Idol E462 720p HDTV AAC H.265-IXD
2020-06-04 08:13:26 434.18MB
Weekly Idol E463 720p HDTV AAC H.265-IXD
2020-06-10 19:39:36 306.69MB
Weekly Idol E464 720p HDTV AAC H.265-IXD
2020-06-17 20:37:20 287.43MB
Weekly Idol E465 720p HDTV AAC H.265-IXD
2020-06-24 20:40:48 383.83MB
Weekly Idol E466 720p HDTV AAC H.265-IXD
2020-07-01 22:40:00 343.29MB
Weekly Idol E467 720p HDTV AAC H.265-IXD
2020-07-08 19:52:05 467.66MB