Fatal Promise E31 720p HDTV AAC H.265-IXD

Fatal Promise E31 720p HDTV AAC H.265-IXD
Weekdays, 7:45 PM 35min 156.45MB

Overview:

"A fatal Promise" is a fierce revenge melodrama about a girl who is pushed to the edge of a cliff while fighting the unjust and a man who breaks his promise with her and starts a family of his own, reuniting 7 years later.

Video Info

Thumbnail:

thumbnail

Media Info:

General
Complete name                            : /indexdrama.com/Fatal Promise E31 720p HDTV AAC H.265-IXD.mp4
Format                                   : MPEG-4
Format profile                           : Base Media
Codec ID                                 : isom (isom/iso2/mp41)
File size                                : 156 MiB
Duration                                 : 34 min 22 s
Overall bit rate                         : 636 kb/s
Encoded date                             : UTC 1904-01-01 00:00:00
Tagged date                              : UTC 1904-01-01 00:00:00
Writing application                      : Lavf57.71.100

Video
ID                                       : 1
Format                                   : HEVC
Format/Info                              : High Efficiency Video Coding
Format profile                           : [email protected]@Main
Codec ID                                 : hev1
Codec ID/Info                            : High Efficiency Video Coding
Duration                                 : 34 min 21 s
Bit rate                                 : 587 kb/s
Width                                    : 1 280 pixels
Height                                   : 720 pixels
Display aspect ratio                     : 16:9
Frame rate mode                          : Constant
Frame rate                               : 29.970 (30000/1001) FPS
Color space                              : YUV
Chroma subsampling                       : 4:2:0
Bit depth                                : 8 bits
Scan type                                : Progressive
Bits/(Pixel*Frame)                       : 0.021
Stream size                              : 144 MiB (92%)
Writing library                          : x265 2.4:[Linux][GCC 6.3.0][64 bit] 8bit
Encoding settings                        : cpuid=1050111 / frame-threads=8 / wpp / no-pmode / no-pme / no-psnr / no-ssim / log-level=2 / input-csp=1 / input-res=1280x720 / interlace=0 / total-frames=0 / level-idc=0 / high-tier=1 / uhd-bd=0 / ref=3 / no-allow-non-conformance / no-repeat-headers / annexb / no-aud / no-hrd / info / hash=0 / no-temporal-layers / open-gop / min-keyint=25 / keyint=250 / bframes=4 / b-adapt=2 / b-pyramid / bframe-bias=0 / rc-lookahead=20 / lookahead-slices=4 / scenecut=40 / no-intra-refresh / ctu=64 / min-cu-size=8 / no-rect / no-amp / max-tu-size=32 / tu-inter-depth=1 / tu-intra-depth=1 / limit-tu=0 / rdoq-level=0 / dynamic-rd=0.00 / no-ssim-rd / signhide / no-tskip / nr-intra=0 / nr-inter=0 / no-constrained-intra / strong-intra-smoothing / max-merge=2 / limit-refs=3 / no-limit-modes / me=1 / subme=2 / merange=57 / temporal-mvp / weightp / no-weightb / no-analyze-src-pics / deblock=0:0 / sao / no-sao-non-deblock / rd=3 / no-early-skip / rskip / no-fast-intra / no-tskip-fast / no-cu-lossless / no-b-intra / rdpenalty=0 / psy-rd=2.00 / psy-rdoq=0.00 / no-rd-refine / analysis-mode=0 / no-lossless / cbqpoffs=0 / crqpoffs=0 / rc=crf / crf=25.0 / qcomp=0.60 / qpstep=4 / stats-write=0 / stats-read=0 / ipratio=1.40 / pbratio=1.30 / aq-mode=1 / aq-strength=1.00 / cutree / zone-count=0 / no-strict-cbr / qg-size=32 / no-rc-grain / qpmax=69 / qpmin=0 / sar=1 / overscan=0 / videoformat=5 / range=0 / colorprim=2 / transfer=2 / colormatrix=2 / chromaloc=0 / display-window=0 / max-cll=0,0 / min-luma=0 / max-luma=255 / log2-max-poc-lsb=8 / vui-timing-info / vui-hrd-info / slices=1 / opt-qp-pps / opt-ref-list-length-pps / no-multi-pass-opt-rps / scenecut-bias=0.05 / no-opt-cu-delta-qp / no-aq-motion / no-hdr / no-hdr-opt / no-dhdr10-opt / refine-level=5 / no-limit-sao
Encoded date                             : UTC 1904-01-01 00:00:00
Tagged date                              : UTC 1904-01-01 00:00:00

Audio
ID                                       : 2
Format                                   : AAC
Format/Info                              : Advanced Audio Codec
Format profile                           : HE-AAC / LC
Codec ID                                 : 40
Duration                                 : 34 min 22 s
Duration_LastFrame                       : -1 ms
Bit rate mode                            : Constant
Bit rate                                 : 43.0 kb/s
Channel(s)                               : 2 channels
Channel positions                        : Front: L R
Sampling rate                            : 48.0 kHz / 24.0 kHz
Frame rate                               : 23.438 FPS (1024 spf)
Compression mode                         : Lossy
Stream size                              : 10.6 MiB (7%)
Default                                  : Yes
Alternate group                          : 1
Encoded date                             : UTC 1904-01-01 00:00:00
Tagged date                              : UTC 1904-01-01 00:00:00


Embed to your sites:

<iframe src="https://indexdrama.com/view/70f542e7512f4cdaa024f1895cab5c8393e81a4f/raw" width="650" height="250" scrolling="no" frameborder="0"></iframe>
More Episode Fatal Promise
Fatal Promise E01 720p HDTV AAC H.265-IXD
2020-04-04 14:54:00 167.42MB
Fatal Promise E02 720p HDTV AAC H.265-IXD
2020-04-04 14:53:58 142.16MB
Fatal Promise E03 720p HDTV AAC H.265-IXD
2020-04-04 14:54:04 126.87MB
Fatal Promise E04 720p HDTV AAC H.265-IXD
2020-04-04 14:54:07 151.43MB
Fatal Promise E05 720p HDTV AAC H.265-IXD
2020-04-04 14:54:05 156MB
Fatal Promise E21 720p HDTV AAC H.265-IXD
2020-04-27 22:52:04 144.95MB
Fatal Promise E22 720p HDTV AAC H.265-IXD
2020-04-28 22:32:52 164.23MB
Fatal Promise E23 720p HDTV AAC H.265-IXD
2020-04-29 22:31:54 149.69MB
Fatal Promise E24 720p HDTV AAC H.265-IXD
2020-05-01 00:32:01 139.97MB
Fatal Promise E25 720p HDTV AAC H.265-IXD
2020-05-01 21:32:33 153.11MB
Fatal Promise E26 720p HDTV AAC H.265-IXD
2020-05-04 23:32:00 151.55MB
Fatal Promise E27 720p HDTV AAC H.265-IXD
2020-05-06 01:32:07 160.74MB
Fatal Promise E28 720p HDTV AAC H.265-IXD
2020-05-06 22:35:38 163.49MB
Fatal Promise E29 720p HDTV AAC H.265-IXD
2020-05-08 02:32:08 150.1MB
Fatal Promise E30 720p HDTV AAC H.265-IXD
2020-05-08 19:32:43 130.21MB
Fatal Promise E32 720p HDTV AAC H.265-IXD
2020-05-12 23:31:01 134.87MB
Fatal Promise E33 720p HDTV AAC H.265-IXD
2020-05-13 19:31:44 151.77MB
Fatal Promise E34 720p HDTV AAC H.265-IXD
2020-05-14 23:38:47 162.41MB
Fatal Promise E35 720p HDTV AAC H.265-IXD
2020-05-18 21:31:42 155.01MB
Fatal Promise E36 720p HDTV AAC H.265-IXD
2020-05-19 19:32:19 168.73MB
Fatal Promise E37 720p HDTV AAC H.265-IXD
2020-05-20 19:31:17 149.99MB
Fatal Promise E38 720p HDTV AAC H.265-IXD
2020-05-21 19:31:54 158.26MB
Fatal Promise E39 720p HDTV AAC H.265-IXD
2020-05-22 19:32:56 168.73MB
Fatal Promise E40 720p HDTV AAC H.265-IXD
2020-05-25 23:31:27 153.6MB
Fatal Promise E41 720p HDTV AAC H.265-IXD
2020-05-26 23:52:32 145.03MB
Fatal Promise E42 720p HDTV AAC H.265-IXD
2020-05-27 21:33:26 166.02MB
Fatal Promise E43 720p HDTV AAC H.265-IXD
2020-05-29 01:47:27 162.68MB
Fatal Promise E44 720p HDTV AAC H.265-IXD
2020-06-01 22:33:15 146.68MB
Fatal Promise E45 720p HDTV AAC H.265-IXD
2020-06-02 23:32:10 155.04MB
Fatal Promise E46 720p HDTV AAC H.265-IXD
2020-06-03 19:32:20 158.21MB
Fatal Promise E47 720p HDTV AAC H.265-IXD
2020-06-05 02:39:01 167.16MB
Fatal Promise E48 720p HDTV AAC H.265-IXD
2020-06-08 23:31:33 167.16MB
Fatal Promise E49 720p HDTV AAC H.265-IXD
2020-06-10 01:32:31 161.78MB
Fatal Promise E50 720p HDTV AAC H.265-IXD
2020-06-10 22:32:02 159.44MB
Fatal Promise E51 720p HDTV AAC H.265-IXD
2020-06-12 01:34:55 160.86MB
Fatal Promise E52 720p HDTV AAC H.265-IXD
2020-06-12 21:37:26 146.88MB
Fatal Promise E53 720p HDTV AAC H.265-IXD
2020-06-15 22:31:56 153.58MB
Fatal Promise E54 720p HDTV AAC H.265-IXD
2020-06-17 19:32:09 158.47MB
Fatal Promise E55 720p HDTV AAC H.265-IXD
2020-06-18 22:31:57 158.84MB
Fatal Promise E56 720p HDTV AAC H.265-IXD
2020-06-19 23:31:37 146.15MB
Fatal Promise E57 720p HDTV AAC H.265-IXD
2020-06-22 22:32:16 157.47MB
Fatal Promise E58 720p HDTV AAC H.265-IXD
2020-06-23 20:32:57 160.77MB
Fatal Promise E59 720p HDTV AAC H.265-IXD
2020-06-24 22:32:52 169.89MB
Fatal Promise E60 720p HDTV AAC H.265-IXD
2020-06-25 20:31:37 148.38MB
Fatal Promise E61 720p HDTV AAC H.265-IXD
2020-06-26 21:32:34 171.79MB
Fatal Promise E62 720p HDTV AAC H.265-IXD
2020-06-30 00:31:30 143.44MB
Fatal Promise E63 720p HDTV AAC H.265-IXD
2020-06-30 22:32:23 155.24MB
Fatal Promise E64 720p HDTV AAC H.265-IXD
2020-07-01 21:32:55 173.68MB
Fatal Promise E65 720p HDTV AAC H.265-IXD
2020-07-02 23:32:46 159.87MB
Fatal Promise E66 720p HDTV AAC H.265-IXD
2020-07-03 21:32:03 145.45MB
Fatal Promise E67 720p HDTV AAC H.265-IXD
2020-07-06 23:32:14 160.12MB
Fatal Promise E68 720p HDTV AAC H.265-IXD
2020-07-08 00:33:13 170.96MB
Fatal Promise E69 720p HDTV AAC H.265-IXD
2020-07-08 23:33:04 164.32MB
Fatal Promise E70 720p HDTV AAC H.265-IXD
2020-07-09 20:33:32 169.57MB
Fatal Promise E71 720p HDTV AAC H.265-IXD
2020-07-11 01:34:33 200.78MB