Stove League S01E08 720p HDTV AAC H.265-IXD

Stove League S01E08 720p HDTV AAC H.265-IXD
Friday, 10:00 PM 60min 204.05MB

Overview:

Baek Seung Soo is the newly appointed general manager of professional baseball team Dreams. The team ranks bottom of the league. Lee Se Young is the operations manager of the team. She has so much love for Dreams and she never gives up on the team.

Video Info

Thumbnail:

thumbnail

Media Info:

General
Complete name                            : /indexdrama.com/Stove League S01E08 720p HDTV AAC H.265-IXD.mp4
Format                                   : MPEG-4
Format profile                           : Base Media
Codec ID                                 : isom (isom/iso2/mp41)
File size                                : 204 MiB
Duration                                 : 1 h 1 min
Overall bit rate                         : 466 kb/s
Encoded date                             : UTC 1904-01-01 00:00:00
Tagged date                              : UTC 1904-01-01 00:00:00
Writing application                      : Lavf57.71.100

Video
ID                                       : 1
Format                                   : HEVC
Format/Info                              : High Efficiency Video Coding
Format profile                           : [email protected]@Main
Codec ID                                 : hev1
Codec ID/Info                            : High Efficiency Video Coding
Duration                                 : 1 h 1 min
Bit rate                                 : 417 kb/s
Width                                    : 1 280 pixels
Height                                   : 720 pixels
Display aspect ratio                     : 16:9
Frame rate mode                          : Constant
Frame rate                               : 29.970 (30000/1001) FPS
Color space                              : YUV
Chroma subsampling                       : 4:2:0
Bit depth                                : 8 bits
Scan type                                : Progressive
Bits/(Pixel*Frame)                       : 0.015
Stream size                              : 182 MiB (89%)
Writing library                          : x265 2.4:[Linux][GCC 6.3.0][64 bit] 8bit
Encoding settings                        : cpuid=1050111 / frame-threads=8 / wpp / no-pmode / no-pme / no-psnr / no-ssim / log-level=2 / input-csp=1 / input-res=1280x720 / interlace=0 / total-frames=0 / level-idc=0 / high-tier=1 / uhd-bd=0 / ref=3 / no-allow-non-conformance / no-repeat-headers / annexb / no-aud / no-hrd / info / hash=0 / no-temporal-layers / open-gop / min-keyint=25 / keyint=250 / bframes=4 / b-adapt=2 / b-pyramid / bframe-bias=0 / rc-lookahead=20 / lookahead-slices=4 / scenecut=40 / no-intra-refresh / ctu=64 / min-cu-size=8 / no-rect / no-amp / max-tu-size=32 / tu-inter-depth=1 / tu-intra-depth=1 / limit-tu=0 / rdoq-level=0 / dynamic-rd=0.00 / no-ssim-rd / signhide / no-tskip / nr-intra=0 / nr-inter=0 / no-constrained-intra / strong-intra-smoothing / max-merge=2 / limit-refs=3 / no-limit-modes / me=1 / subme=2 / merange=57 / temporal-mvp / weightp / no-weightb / no-analyze-src-pics / deblock=0:0 / sao / no-sao-non-deblock / rd=3 / no-early-skip / rskip / no-fast-intra / no-tskip-fast / no-cu-lossless / no-b-intra / rdpenalty=0 / psy-rd=2.00 / psy-rdoq=0.00 / no-rd-refine / analysis-mode=0 / no-lossless / cbqpoffs=0 / crqpoffs=0 / rc=crf / crf=25.0 / qcomp=0.60 / qpstep=4 / stats-write=0 / stats-read=0 / ipratio=1.40 / pbratio=1.30 / aq-mode=1 / aq-strength=1.00 / cutree / zone-count=0 / no-strict-cbr / qg-size=32 / no-rc-grain / qpmax=69 / qpmin=0 / sar=1 / overscan=0 / videoformat=5 / range=0 / colorprim=2 / transfer=2 / colormatrix=2 / chromaloc=0 / display-window=0 / max-cll=0,0 / min-luma=0 / max-luma=255 / log2-max-poc-lsb=8 / vui-timing-info / vui-hrd-info / slices=1 / opt-qp-pps / opt-ref-list-length-pps / no-multi-pass-opt-rps / scenecut-bias=0.05 / no-opt-cu-delta-qp / no-aq-motion / no-hdr / no-hdr-opt / no-dhdr10-opt / refine-level=5 / no-limit-sao
Encoded date                             : UTC 1904-01-01 00:00:00
Tagged date                              : UTC 1904-01-01 00:00:00

Audio
ID                                       : 2
Format                                   : AAC
Format/Info                              : Advanced Audio Codec
Format profile                           : HE-AAC / LC
Codec ID                                 : 40
Duration                                 : 1 h 1 min
Duration_LastFrame                       : -23 ms
Bit rate mode                            : Constant
Bit rate                                 : 43.0 kb/s
Channel(s)                               : 2 channels
Channel positions                        : Front: L R
Sampling rate                            : 48.0 kHz / 24.0 kHz
Frame rate                               : 23.438 FPS (1024 spf)
Compression mode                         : Lossy
Stream size                              : 18.8 MiB (9%)
Default                                  : Yes
Alternate group                          : 1
Encoded date                             : UTC 1904-01-01 00:00:00
Tagged date                              : UTC 1904-01-01 00:00:00


Embed to your sites:

<iframe src="https://indexdrama.com/view/7db70f7f22dd24fc88af1e3d388f6eba481c0216/raw" width="650" height="250" scrolling="no" frameborder="0"></iframe>
More Episode Stove League
Stove League S01E01 720p HDTV AAC H.265-IXD
2020-03-18 03:54:45 279.82MB
Stove League S01E02 720p HDTV AAC H.265-IXD
2020-03-18 08:51:05 220.57MB
Stove League S01E03 720p HDTV AAC H.265-IXD
2020-03-18 06:53:07 240.67MB
Stove League S01E04 720p HDTV AAC H.265-IXD
2020-03-18 09:51:34 229.18MB
Stove League S01E05 720p HDTV AAC H.265-IXD
2020-03-17 13:53:38 228.43MB
Stove League S01E06 720p HDTV AAC H.265-IXD
2020-03-18 05:52:09 211.11MB
Stove League S01E07 720p HDTV AAC H.265-IXD
2020-03-18 10:49:41 194.93MB
Stove League S01E09 720p HDTV AAC H.265-IXD
2020-03-17 17:49:19 194.75MB
Stove League S01E10 720p HDTV AAC H.265-IXD
2020-03-18 07:50:03 207.26MB
Stove League S01E11 720p HDTV AAC H.265-IXD
2020-03-18 04:51:17 215.87MB
Stove League S01E12 720p HDTV AAC H.265-IXD
2020-03-17 14:50:46 230.56MB
Stove League S01E13 720p HDTV AAC H.265-IXD
2020-03-17 15:48:53 191.08MB
Stove League S01E14 720p HDTV AAC H.265-IXD
2020-03-17 16:53:25 210.11MB
Stove League S01E15 720p HDTV AAC H.265-IXD
2020-03-17 12:59:47 187.45MB
Stove League S01E16 720p HDTV AAC H.265-IXD
2020-03-17 18:49:49 196.34MB