Rugal S01E15 720p HDTV AAC H.265-IXD

Rugal S01E15 720p HDTV AAC H.265-IXD
Sunday, 10:45 PM 60min 180.23MB

Overview:

Kang Ki-Beom is an elite detective. He is currently investigating the criminal organization Argos, but, when he comes home, he finds several men in masks. His wife and child are murdered by the masked men sent from Argos. They beat Kang Ki-Beom and cut out both of his eyeballs. When Kang Ki-Beom wakes up, he finds himself in the hospital and he is accused of murder. The NIS then approaches Kang Ki-Beom. He is selected to become a member of Rugal, a special team organized by the NIS. Through biotechnology, he gains two artificial eyeballs with a special ability. Kang Ki-Beom and the Rugal team set out to take down criminal organizations.

Video Info

Thumbnail:

thumbnail

Media Info:

General
Complete name                            : /indexdrama.com/Rugal S01E15 720p HDTV AAC H.265-IXD.mp4
Format                                   : MPEG-4
Format profile                           : Base Media
Codec ID                                 : isom (isom/iso2/mp41)
File size                                : 180 MiB
Duration                                 : 59 min 53 s
Overall bit rate                         : 421 kb/s
Encoded date                             : UTC 1904-01-01 00:00:00
Tagged date                              : UTC 1904-01-01 00:00:00
Writing application                      : Lavf57.71.100

Video
ID                                       : 1
Format                                   : HEVC
Format/Info                              : High Efficiency Video Coding
Format profile                           : [email protected]@Main
Codec ID                                 : hev1
Codec ID/Info                            : High Efficiency Video Coding
Duration                                 : 59 min 53 s
Bit rate                                 : 372 kb/s
Width                                    : 1 280 pixels
Height                                   : 720 pixels
Display aspect ratio                     : 16:9
Frame rate mode                          : Constant
Frame rate                               : 29.970 (30000/1001) FPS
Color space                              : YUV
Chroma subsampling                       : 4:2:0
Bit depth                                : 8 bits
Scan type                                : Progressive
Bits/(Pixel*Frame)                       : 0.013
Stream size                              : 159 MiB (88%)
Writing library                          : x265 2.4:[Linux][GCC 6.3.0][64 bit] 8bit
Encoding settings                        : cpuid=1050111 / frame-threads=8 / wpp / no-pmode / no-pme / no-psnr / no-ssim / log-level=2 / input-csp=1 / input-res=1280x720 / interlace=0 / total-frames=0 / level-idc=0 / high-tier=1 / uhd-bd=0 / ref=3 / no-allow-non-conformance / no-repeat-headers / annexb / no-aud / no-hrd / info / hash=0 / no-temporal-layers / open-gop / min-keyint=25 / keyint=250 / bframes=4 / b-adapt=2 / b-pyramid / bframe-bias=0 / rc-lookahead=20 / lookahead-slices=4 / scenecut=40 / no-intra-refresh / ctu=64 / min-cu-size=8 / no-rect / no-amp / max-tu-size=32 / tu-inter-depth=1 / tu-intra-depth=1 / limit-tu=0 / rdoq-level=0 / dynamic-rd=0.00 / no-ssim-rd / signhide / no-tskip / nr-intra=0 / nr-inter=0 / no-constrained-intra / strong-intra-smoothing / max-merge=2 / limit-refs=3 / no-limit-modes / me=1 / subme=2 / merange=57 / temporal-mvp / weightp / no-weightb / no-analyze-src-pics / deblock=0:0 / sao / no-sao-non-deblock / rd=3 / no-early-skip / rskip / no-fast-intra / no-tskip-fast / no-cu-lossless / no-b-intra / rdpenalty=0 / psy-rd=2.00 / psy-rdoq=0.00 / no-rd-refine / analysis-mode=0 / no-lossless / cbqpoffs=0 / crqpoffs=0 / rc=crf / crf=25.0 / qcomp=0.60 / qpstep=4 / stats-write=0 / stats-read=0 / ipratio=1.40 / pbratio=1.30 / aq-mode=1 / aq-strength=1.00 / cutree / zone-count=0 / no-strict-cbr / qg-size=32 / no-rc-grain / qpmax=69 / qpmin=0 / sar=1 / overscan=0 / videoformat=5 / range=0 / colorprim=2 / transfer=2 / colormatrix=2 / chromaloc=0 / display-window=0 / max-cll=0,0 / min-luma=0 / max-luma=255 / log2-max-poc-lsb=8 / vui-timing-info / vui-hrd-info / slices=1 / opt-qp-pps / opt-ref-list-length-pps / no-multi-pass-opt-rps / scenecut-bias=0.05 / no-opt-cu-delta-qp / no-aq-motion / no-hdr / no-hdr-opt / no-dhdr10-opt / refine-level=5 / no-limit-sao
Encoded date                             : UTC 1904-01-01 00:00:00
Tagged date                              : UTC 1904-01-01 00:00:00

Audio
ID                                       : 2
Format                                   : AAC
Format/Info                              : Advanced Audio Codec
Format profile                           : HE-AAC / LC
Codec ID                                 : 40
Duration                                 : 59 min 53 s
Duration_LastFrame                       : -1 ms
Bit rate mode                            : Constant
Bit rate                                 : 43.0 kb/s
Channel(s)                               : 2 channels
Channel positions                        : Front: L R
Sampling rate                            : 48.0 kHz / 24.0 kHz
Frame rate                               : 23.438 FPS (1024 spf)
Compression mode                         : Lossy
Stream size                              : 18.4 MiB (10%)
Default                                  : Yes
Alternate group                          : 1
Encoded date                             : UTC 1904-01-01 00:00:00
Tagged date                              : UTC 1904-01-01 00:00:00


Embed to your sites:

<iframe src="https://indexdrama.com/view/8a178b65ad30c190d25472ef36aa6dc8def9b100/raw" width="650" height="250" scrolling="no" frameborder="0"></iframe>
More Episode Rugal
Rugal S01E01 720p HDTV AAC H.265-IXD
2020-03-29 01:47:04 298.21MB
Rugal S01E02 720p HDTV AAC H.265-IXD
2020-03-30 01:08:39 259.57MB
Rugal S01E03 720p HDTV AAC H.265-IXD
2020-04-05 00:06:58 217.12MB
Rugal S01E04 720p HDTV AAC H.265-IXD
2020-04-06 22:54:11 220.99MB
Rugal S01E05 720p HDTV AAC H.265-IXD
2020-04-11 21:37:10 193.77MB
Rugal S01E06 720p HDTV AAC H.265-IXD
2020-04-12 21:53:41 204.58MB
Rugal S01E07 720p HDTV AAC H.265-IXD
2020-04-18 23:52:23 204.26MB
Rugal S01E08 720p HDTV AAC H.265-IXD
2020-04-19 20:53:18 210.38MB
Rugal S01E09 720p HDTV AAC H.265-IXD
2020-04-26 01:02:17 202.14MB
Rugal S01E10 720p HDTV AAC H.265-IXD
2020-04-27 00:08:05 186.35MB
Rugal S01E11 720p HDTV AAC H.265-IXD
2020-05-02 20:50:51 210.3MB
Rugal S01E12 720p HDTV AAC H.265-IXD
2020-05-04 00:25:21 206MB
Rugal S01E13 720p HDTV AAC H.265-IXD
2020-05-09 22:51:48 204.03MB
Rugal S01E14 720p HDTV AAC H.265-IXD
2020-05-10 23:28:19 199.94MB
Rugal S01E16 720p HDTV AAC H.265-IXD
2020-05-17 21:24:27 233.35MB