Heart Signal S03E11 720p HDTV AAC H.265-IXD

Heart Signal S03E11 720p HDTV AAC H.265-IXD
Wednesday, 11:00 PM 95min 539.69MB

Overview:

A cohabitation of young men and women begin at Signal House where filled with rosy expectation of love and romance blooms. The “Predictors” with vast experiences in dating and love will detect potential lovers in the Signal House. The most exhilarating love game begins now.

Video Info

Thumbnail:

thumbnail

Media Info:

General
Complete name                            : /indexdrama.com/Heart Signal S03E11 720p HDTV AAC H.265-IXD.mp4
Format                                   : MPEG-4
Format profile                           : Base Media
Codec ID                                 : isom (isom/iso2/mp41)
File size                                : 540 MiB
Duration                                 : 1 h 39 min
Overall bit rate                         : 755 kb/s
Encoded date                             : UTC 1904-01-01 00:00:00
Tagged date                              : UTC 1904-01-01 00:00:00
Writing application                      : Lavf57.71.100

Video
ID                                       : 1
Format                                   : HEVC
Format/Info                              : High Efficiency Video Coding
Format profile                           : [email protected]@Main
Codec ID                                 : hev1
Codec ID/Info                            : High Efficiency Video Coding
Duration                                 : 1 h 39 min
Bit rate                                 : 705 kb/s
Width                                    : 1 280 pixels
Height                                   : 720 pixels
Display aspect ratio                     : 16:9
Frame rate mode                          : Constant
Frame rate                               : 29.970 (30000/1001) FPS
Color space                              : YUV
Chroma subsampling                       : 4:2:0
Bit depth                                : 8 bits
Scan type                                : Progressive
Bits/(Pixel*Frame)                       : 0.026
Stream size                              : 504 MiB (93%)
Writing library                          : x265 2.4:[Linux][GCC 6.3.0][64 bit] 8bit
Encoding settings                        : cpuid=1050111 / frame-threads=8 / wpp / no-pmode / no-pme / no-psnr / no-ssim / log-level=2 / input-csp=1 / input-res=1280x720 / interlace=0 / total-frames=0 / level-idc=0 / high-tier=1 / uhd-bd=0 / ref=3 / no-allow-non-conformance / no-repeat-headers / annexb / no-aud / no-hrd / info / hash=0 / no-temporal-layers / open-gop / min-keyint=25 / keyint=250 / bframes=4 / b-adapt=2 / b-pyramid / bframe-bias=0 / rc-lookahead=20 / lookahead-slices=4 / scenecut=40 / no-intra-refresh / ctu=64 / min-cu-size=8 / no-rect / no-amp / max-tu-size=32 / tu-inter-depth=1 / tu-intra-depth=1 / limit-tu=0 / rdoq-level=0 / dynamic-rd=0.00 / no-ssim-rd / signhide / no-tskip / nr-intra=0 / nr-inter=0 / no-constrained-intra / strong-intra-smoothing / max-merge=2 / limit-refs=3 / no-limit-modes / me=1 / subme=2 / merange=57 / temporal-mvp / weightp / no-weightb / no-analyze-src-pics / deblock=0:0 / sao / no-sao-non-deblock / rd=3 / no-early-skip / rskip / no-fast-intra / no-tskip-fast / no-cu-lossless / no-b-intra / rdpenalty=0 / psy-rd=2.00 / psy-rdoq=0.00 / no-rd-refine / analysis-mode=0 / no-lossless / cbqpoffs=0 / crqpoffs=0 / rc=crf / crf=25.0 / qcomp=0.60 / qpstep=4 / stats-write=0 / stats-read=0 / ipratio=1.40 / pbratio=1.30 / aq-mode=1 / aq-strength=1.00 / cutree / zone-count=0 / no-strict-cbr / qg-size=32 / no-rc-grain / qpmax=69 / qpmin=0 / sar=1 / overscan=0 / videoformat=5 / range=0 / colorprim=2 / transfer=2 / colormatrix=2 / chromaloc=0 / display-window=0 / max-cll=0,0 / min-luma=0 / max-luma=255 / log2-max-poc-lsb=8 / vui-timing-info / vui-hrd-info / slices=1 / opt-qp-pps / opt-ref-list-length-pps / no-multi-pass-opt-rps / scenecut-bias=0.05 / no-opt-cu-delta-qp / no-aq-motion / no-hdr / no-hdr-opt / no-dhdr10-opt / refine-level=5 / no-limit-sao
Encoded date                             : UTC 1904-01-01 00:00:00
Tagged date                              : UTC 1904-01-01 00:00:00

Audio
ID                                       : 2
Format                                   : AAC
Format/Info                              : Advanced Audio Codec
Format profile                           : HE-AACv2 / HE-AAC / LC
Codec ID                                 : 40
Duration                                 : 1 h 39 min
Duration_LastFrame                       : -23 ms
Bit rate mode                            : Constant
Bit rate                                 : 43.0 kb/s
Channel(s)                               : 2 channels / 2 channels / 2 channels
Channel positions                        : Front: L R / Front: L R / Front: L R
Sampling rate                            : 48.0 kHz / 48.0 kHz / 24.0 kHz
Frame rate                               : 23.438 FPS (1024 spf)
Compression mode                         : Lossy
Stream size                              : 30.8 MiB (6%)
Default                                  : Yes
Alternate group                          : 1
Encoded date                             : UTC 1904-01-01 00:00:00
Tagged date                              : UTC 1904-01-01 00:00:00


Embed to your sites:

<iframe src="https://indexdrama.com/view/8aeda5b5cf9f844e3ad5f1f3bd6d6ebe661d36b4/raw" width="650" height="250" scrolling="no" frameborder="0"></iframe>
More Episode Heart Signal
Heart Signal S03E04 720p HDTV AAC H.265-IXD
2020-06-11 12:37:05 508.77MB
Heart Signal S03E05 720p HDTV AAC H.265-IXD
2020-06-11 11:27:47 459.89MB
Heart Signal S03E06 720p HDTV AAC H.265-IXD
2020-06-11 15:58:13 430.17MB
Heart Signal S03E07 720p HDTV AAC H.265-IXD
2020-06-12 05:25:43 422.86MB
Heart Signal S03E08 720p HDTV AAC H.265-IXD
2020-06-11 19:28:01 540.74MB
Heart Signal S03E09 720p HDTV AAC H.265-IXD
2020-06-11 22:17:02 600.6MB
Heart Signal S03E10 720p HDTV AAC H.265-IXD
2020-06-11 14:34:22 416.93MB
Heart Signal S03E12 720p HDTV AAC H.265-IXD
2020-06-18 03:24:08 575.3MB