Flower of Evil S01E13 720p HDTV AAC H.265-IXD

Flower of Evil S01E13 720p HDTV AAC H.265-IXD
Wednesday, 10:45 PM 70min 218.11MB

Overview:

Suspenseful drama about a psychopath who changes his identity to conceal his cruel past and his homicide detective wife who tries to track down the truth.

Video Info

Thumbnail:

thumbnail

Media Info:

General
Complete name                            : /indexdrama.com/Flower of Evil S01E13 720p HDTV AAC H.265-IXD.mp4
Format                                   : MPEG-4
Format profile                           : Base Media
Codec ID                                 : isom (isom/iso2/mp41)
File size                                : 218 MiB
Duration                                 : 1 h 13 min
Overall bit rate                         : 414 kb/s
Encoded date                             : UTC 1904-01-01 00:00:00
Tagged date                              : UTC 1904-01-01 00:00:00
Writing application                      : Lavf57.71.100

Video
ID                                       : 1
Format                                   : HEVC
Format/Info                              : High Efficiency Video Coding
Format profile                           : [email protected]@Main
Codec ID                                 : hev1
Codec ID/Info                            : High Efficiency Video Coding
Duration                                 : 1 h 13 min
Bit rate                                 : 365 kb/s
Width                                    : 1 280 pixels
Height                                   : 720 pixels
Display aspect ratio                     : 16:9
Frame rate mode                          : Constant
Frame rate                               : 29.970 (30000/1001) FPS
Color space                              : YUV
Chroma subsampling                       : 4:2:0
Bit depth                                : 8 bits
Scan type                                : Progressive
Bits/(Pixel*Frame)                       : 0.013
Stream size                              : 192 MiB (88%)
Writing library                          : x265 2.4:[Linux][GCC 6.3.0][64 bit] 8bit
Encoding settings                        : cpuid=1050111 / frame-threads=8 / wpp / no-pmode / no-pme / no-psnr / no-ssim / log-level=2 / input-csp=1 / input-res=1280x720 / interlace=0 / total-frames=0 / level-idc=0 / high-tier=1 / uhd-bd=0 / ref=3 / no-allow-non-conformance / no-repeat-headers / annexb / no-aud / no-hrd / info / hash=0 / no-temporal-layers / open-gop / min-keyint=25 / keyint=250 / bframes=4 / b-adapt=2 / b-pyramid / bframe-bias=0 / rc-lookahead=20 / lookahead-slices=4 / scenecut=40 / no-intra-refresh / ctu=64 / min-cu-size=8 / no-rect / no-amp / max-tu-size=32 / tu-inter-depth=1 / tu-intra-depth=1 / limit-tu=0 / rdoq-level=0 / dynamic-rd=0.00 / no-ssim-rd / signhide / no-tskip / nr-intra=0 / nr-inter=0 / no-constrained-intra / strong-intra-smoothing / max-merge=2 / limit-refs=3 / no-limit-modes / me=1 / subme=2 / merange=57 / temporal-mvp / weightp / no-weightb / no-analyze-src-pics / deblock=0:0 / sao / no-sao-non-deblock / rd=3 / no-early-skip / rskip / no-fast-intra / no-tskip-fast / no-cu-lossless / no-b-intra / rdpenalty=0 / psy-rd=2.00 / psy-rdoq=0.00 / no-rd-refine / analysis-mode=0 / no-lossless / cbqpoffs=0 / crqpoffs=0 / rc=crf / crf=25.0 / qcomp=0.60 / qpstep=4 / stats-write=0 / stats-read=0 / ipratio=1.40 / pbratio=1.30 / aq-mode=1 / aq-strength=1.00 / cutree / zone-count=0 / no-strict-cbr / qg-size=32 / no-rc-grain / qpmax=69 / qpmin=0 / sar=1 / overscan=0 / videoformat=5 / range=0 / colorprim=2 / transfer=2 / colormatrix=2 / chromaloc=0 / display-window=0 / max-cll=0,0 / min-luma=0 / max-luma=255 / log2-max-poc-lsb=8 / vui-timing-info / vui-hrd-info / slices=1 / opt-qp-pps / opt-ref-list-length-pps / no-multi-pass-opt-rps / scenecut-bias=0.05 / no-opt-cu-delta-qp / no-aq-motion / no-hdr / no-hdr-opt / no-dhdr10-opt / refine-level=5 / no-limit-sao
Encoded date                             : UTC 1904-01-01 00:00:00
Tagged date                              : UTC 1904-01-01 00:00:00

Audio
ID                                       : 2
Format                                   : AAC
Format/Info                              : Advanced Audio Codec
Format profile                           : HE-AAC / LC
Codec ID                                 : 40
Duration                                 : 1 h 13 min
Duration_LastFrame                       : -1 ms
Bit rate mode                            : Constant
Bit rate                                 : 43.0 kb/s
Channel(s)                               : 2 channels
Channel positions                        : Front: L R
Sampling rate                            : 48.0 kHz / 24.0 kHz
Frame rate                               : 23.438 FPS (1024 spf)
Compression mode                         : Lossy
Stream size                              : 22.7 MiB (10%)
Default                                  : Yes
Alternate group                          : 1
Encoded date                             : UTC 1904-01-01 00:00:00
Tagged date                              : UTC 1904-01-01 00:00:00


Embed to your sites:

<iframe src="https://indexdrama.com/view/ae2a2fae061b68d86057170adec869461c11bf90/raw" width="650" height="250" scrolling="no" frameborder="0"></iframe>
More Episode Flower of Evil
Flower of Evil S01E01 720p HDTV AAC H.265-IXD
2020-07-30 02:55:25 221.56MB
Flower of Evil S01E02 720p HDTV AAC H.265-IXD
2020-07-30 21:00:27 261.57MB
Flower of Evil S01E03 720p HDTV AAC H.265-IXD
2020-08-05 20:58:48 250.51MB
Flower of Evil S01E04 720p HDTV AAC H.265-IXD
2020-08-06 22:00:53 261.58MB
Flower of Evil S01E05 720p HDTV AAC H.265-IXD
2020-08-12 23:01:11 250.74MB
Flower of Evil S01E06 720p HDTV AAC H.265-IXD
2020-08-14 00:59:01 227.08MB
Flower of Evil S01E07 720p HDTV AAC H.265-IXD
2020-08-20 03:02:11 239.51MB
Flower of Evil S01E08 720p HDTV AAC H.265-IXD
2020-08-20 20:04:34 237.13MB
Flower of Evil S01E09 720p HDTV AAC H.265-IXD
2020-08-26 22:02:50 223.01MB
Flower of Evil S01E10 720p HDTV AAC H.265-IXD
2020-08-27 21:59:48 207.8MB
Flower of Evil S01E11 720p HDTV AAC H.265-IXD
2020-09-02 23:01:18 215.24MB
Flower of Evil S01E12 720p HDTV AAC H.265-IXD
2020-09-10 00:01:47 235.94MB
Flower of Evil S01E14 720p HDTV AAC H.265-IXD
2020-09-16 23:01:25 217.62MB
Flower of Evil S01E15 720p HDTV AAC H.265-IXD
2020-09-17 20:07:17 240.83MB
Flower of Evil S01E16 720p HDTV AAC H.265-IXD
2020-09-23 23:06:21 233.4MB