Brilliant Heritage E23 720p HDTV AAC H.265-IXD

Brilliant Heritage E23 720p HDTV AAC H.265-IXD
Weekdays, 8:30 PM 30min 170.71MB

Overview:

A warm and educational family drama about a 33 year-old unmarried woman conspires to marry a millionaire in his 80s and looking for family love with his four handsome sons.

Video Info

Thumbnail:

thumbnail

Media Info:

General
Complete name                            : /indexdrama.com/Brilliant Heritage E23 720p HDTV AAC H.265-IXD.mp4
Format                                   : MPEG-4
Format profile                           : Base Media
Codec ID                                 : isom (isom/iso2/mp41)
File size                                : 171 MiB
Duration                                 : 28 min 10 s
Overall bit rate                         : 847 kb/s
Encoded date                             : UTC 1904-01-01 00:00:00
Tagged date                              : UTC 1904-01-01 00:00:00
Writing application                      : Lavf57.71.100

Video
ID                                       : 1
Format                                   : HEVC
Format/Info                              : High Efficiency Video Coding
Format profile                           : [email protected]@Main
Codec ID                                 : hev1
Codec ID/Info                            : High Efficiency Video Coding
Duration                                 : 28 min 10 s
Bit rate                                 : 798 kb/s
Width                                    : 1 280 pixels
Height                                   : 720 pixels
Display aspect ratio                     : 16:9
Frame rate mode                          : Constant
Frame rate                               : 29.970 (30000/1001) FPS
Color space                              : YUV
Chroma subsampling                       : 4:2:0
Bit depth                                : 8 bits
Scan type                                : Progressive
Bits/(Pixel*Frame)                       : 0.029
Stream size                              : 161 MiB (94%)
Writing library                          : x265 2.4:[Linux][GCC 6.3.0][64 bit] 8bit
Encoding settings                        : cpuid=1050111 / frame-threads=8 / wpp / no-pmode / no-pme / no-psnr / no-ssim / log-level=2 / input-csp=1 / input-res=1280x720 / interlace=0 / total-frames=0 / level-idc=0 / high-tier=1 / uhd-bd=0 / ref=3 / no-allow-non-conformance / no-repeat-headers / annexb / no-aud / no-hrd / info / hash=0 / no-temporal-layers / open-gop / min-keyint=25 / keyint=250 / bframes=4 / b-adapt=2 / b-pyramid / bframe-bias=0 / rc-lookahead=20 / lookahead-slices=4 / scenecut=40 / no-intra-refresh / ctu=64 / min-cu-size=8 / no-rect / no-amp / max-tu-size=32 / tu-inter-depth=1 / tu-intra-depth=1 / limit-tu=0 / rdoq-level=0 / dynamic-rd=0.00 / no-ssim-rd / signhide / no-tskip / nr-intra=0 / nr-inter=0 / no-constrained-intra / strong-intra-smoothing / max-merge=2 / limit-refs=3 / no-limit-modes / me=1 / subme=2 / merange=57 / temporal-mvp / weightp / no-weightb / no-analyze-src-pics / deblock=0:0 / sao / no-sao-non-deblock / rd=3 / no-early-skip / rskip / no-fast-intra / no-tskip-fast / no-cu-lossless / no-b-intra / rdpenalty=0 / psy-rd=2.00 / psy-rdoq=0.00 / no-rd-refine / analysis-mode=0 / no-lossless / cbqpoffs=0 / crqpoffs=0 / rc=crf / crf=25.0 / qcomp=0.60 / qpstep=4 / stats-write=0 / stats-read=0 / ipratio=1.40 / pbratio=1.30 / aq-mode=1 / aq-strength=1.00 / cutree / zone-count=0 / no-strict-cbr / qg-size=32 / no-rc-grain / qpmax=69 / qpmin=0 / sar=1 / overscan=0 / videoformat=5 / range=0 / colorprim=2 / transfer=2 / colormatrix=2 / chromaloc=0 / display-window=0 / max-cll=0,0 / min-luma=0 / max-luma=255 / log2-max-poc-lsb=8 / vui-timing-info / vui-hrd-info / slices=1 / opt-qp-pps / opt-ref-list-length-pps / no-multi-pass-opt-rps / scenecut-bias=0.05 / no-opt-cu-delta-qp / no-aq-motion / no-hdr / no-hdr-opt / no-dhdr10-opt / refine-level=5 / no-limit-sao
Encoded date                             : UTC 1904-01-01 00:00:00
Tagged date                              : UTC 1904-01-01 00:00:00

Audio
ID                                       : 2
Format                                   : AAC
Format/Info                              : Advanced Audio Codec
Format profile                           : HE-AAC / LC
Codec ID                                 : 40
Duration                                 : 28 min 10 s
Duration_LastFrame                       : -1 ms
Bit rate mode                            : Constant
Bit rate                                 : 43.0 kb/s
Channel(s)                               : 2 channels
Channel positions                        : Front: L R
Sampling rate                            : 48.0 kHz / 24.0 kHz
Frame rate                               : 23.438 FPS (1024 spf)
Compression mode                         : Lossy
Stream size                              : 8.66 MiB (5%)
Default                                  : Yes
Alternate group                          : 1
Encoded date                             : UTC 1904-01-01 00:00:00
Tagged date                              : UTC 1904-01-01 00:00:00


Embed to your sites:

<iframe src="https://indexdrama.com/view/bdc5524d1a376e0987b38e7fbca1824e45f6d8c5/raw" width="650" height="250" scrolling="no" frameborder="0"></iframe>
More Episode Brilliant Heritage
Brilliant Heritage E06 720p HDTV AAC H.265-IXD
2020-04-27 23:27:29 141.75MB
Brilliant Heritage E07 720p HDTV AAC H.265-IXD
2020-04-28 23:27:38 145.81MB
Brilliant Heritage E08 720p HDTV AAC H.265-IXD
2020-04-29 23:27:17 154.49MB
Brilliant Heritage E09 720p HDTV AAC H.265-IXD
2020-04-30 22:27:28 153.22MB
Brilliant Heritage E10 720p HDTV AAC H.265-IXD
2020-05-01 19:28:00 134.75MB
Brilliant Heritage E11 720p HDTV AAC H.265-IXD
2020-05-04 22:29:49 181.39MB
Brilliant Heritage E12 720p HDTV AAC H.265-IXD
2020-05-06 00:27:42 152.49MB
Brilliant Heritage E13 720p HDTV AAC H.265-IXD
2020-05-06 23:51:32 167.55MB
Brilliant Heritage E14 720p HDTV AAC H.265-IXD
2020-05-07 22:28:36 169.58MB
Brilliant Heritage E15 720p HDTV AAC H.265-IXD
2020-05-08 20:28:43 164.85MB
Brilliant Heritage E16 720p HDTV AAC H.265-IXD
2020-05-11 21:28:34 170.32MB
Brilliant Heritage E17 720p HDTV AAC H.265-IXD
2020-05-12 22:28:11 174.36MB
Brilliant Heritage E18 720p HDTV AAC H.265-IXD
2020-05-13 23:28:00 154.75MB
Brilliant Heritage E19 720p HDTV AAC H.265-IXD
2020-05-14 21:27:50 166.38MB
Brilliant Heritage E21 720p HDTV AAC H.265-IXD
2020-05-18 19:27:22 161.46MB
Brilliant Heritage E24 720p HDTV AAC H.265-IXD
2020-05-22 00:27:24 159.83MB
Brilliant Heritage E25 720p HDTV AAC H.265-IXD
2020-05-22 21:29:04 154.23MB
Brilliant Heritage E26 720p HDTV AAC H.265-IXD
2020-05-25 22:28:10 154.21MB
Brilliant Heritage E27 720p HDTV AAC H.265-IXD
2020-05-26 22:54:53 142.55MB
Brilliant Heritage E28 720p HDTV AAC H.265-IXD
2020-05-27 22:28:46 163.31MB
Brilliant Heritage E29 720p HDTV AAC H.265-IXD
2020-05-28 21:27:29 150.78MB
Brilliant Heritage E30 720p HDTV AAC H.265-IXD
2020-05-29 19:28:12 157.63MB
Brilliant Heritage E31 720p HDTV AAC H.265-IXD
2020-06-02 00:28:03 165.49MB
Brilliant Heritage E32 720p HDTV AAC H.265-IXD
2020-06-03 01:29:13 189.03MB
Brilliant Heritage E33 720p HDTV AAC H.265-IXD
2020-06-03 20:29:22 191.54MB
Brilliant Heritage E34 720p HDTV AAC H.265-IXD
2020-06-04 23:40:21 186.97MB
Brilliant Heritage E35 720p HDTV AAC H.265-IXD
2020-06-05 20:27:45 155.16MB
Brilliant Heritage E36 720p HDTV AAC H.265-IXD
2020-06-08 22:27:34 148.45MB
Brilliant Heritage E37 720p HDTV AAC H.265-IXD
2020-06-09 23:27:42 159.07MB
Brilliant Heritage E38 720p HDTV AAC H.265-IXD
2020-06-10 23:27:11 168.41MB
Brilliant Heritage E39 720p HDTV AAC H.265-IXD
2020-06-11 21:17:19 161.43MB
Brilliant Heritage E41 720p HDTV AAC H.265-IXD
2020-06-15 23:26:27 140.98MB
Brilliant Heritage E43 720p HDTV AAC H.265-IXD
2020-06-17 21:27:07 140.34MB
Brilliant Heritage E44 720p HDTV AAC H.265-IXD
2020-06-18 23:27:33 153.43MB
Brilliant Heritage E45 720p HDTV AAC H.265-IXD
2020-06-19 22:26:41 136.91MB
Brilliant Heritage E47 720p HDTV AAC H.265-IXD
2020-06-23 19:28:33 150.48MB
Brilliant Heritage E48 720p HDTV AAC H.265-IXD
2020-06-24 23:27:30 159.39MB
Brilliant Heritage E49 720p HDTV AAC H.265-IXD
2020-06-26 19:26:45 150.38MB
Brilliant Heritage E50 720p HDTV AAC H.265-IXD
2020-06-29 23:25:35 124.67MB
Brilliant Heritage E51 720p HDTV AAC H.265-IXD
2020-07-01 00:27:23 161.04MB
Brilliant Heritage E52 720p HDTV AAC H.265-IXD
2020-07-01 20:26:21 149.98MB
Brilliant Heritage E53 720p HDTV AAC H.265-IXD
2020-07-03 01:26:32 161.18MB
Brilliant Heritage E54 720p HDTV AAC H.265-IXD
2020-07-03 22:26:28 155.87MB
Brilliant Heritage E55 720p HDTV AAC H.265-IXD
2020-07-07 00:27:24 158.17MB
Brilliant Heritage E56 720p HDTV AAC H.265-IXD
2020-07-07 22:26:03 133.12MB