Chocolate S01E11 720p HDTV AAC H.265-IXD

Chocolate S01E11 720p HDTV AAC H.265-IXD
Friday, 11:00 PM 65min 183.87MB

Overview:

Lee Kang grew up in a small seaside town, dreaming of becoming a cook. He is now a neurosurgeon. He looks cold-hearted, but, in fact, he hides his warm heart. When Moon Cha Young was a child, she met Lee Kang at a small restaurant in the seaside town. Lee Kang cooked and gave her a meal. This is the happiest memory for Moon Cha Young and it eventually led her to become a chef. Neurosurgeon Lee Kang and chef Moon Cha Young meet again at a hospice ward.

Video Info

Thumbnail:

thumbnail

Media Info:

General
Complete name                            : /indexdrama.com/Chocolate S01E11 720p HDTV AAC H.265-IXD.mp4
Format                                   : MPEG-4
Format profile                           : Base Media
Codec ID                                 : isom (isom/iso2/mp41)
File size                                : 184 MiB
Duration                                 : 1 h 1 min
Overall bit rate                         : 421 kb/s
Encoded date                             : UTC 1904-01-01 00:00:00
Tagged date                              : UTC 1904-01-01 00:00:00
Writing application                      : Lavf57.71.100

Video
ID                                       : 1
Format                                   : HEVC
Format/Info                              : High Efficiency Video Coding
Format profile                           : [email protected]@Main
Codec ID                                 : hev1
Codec ID/Info                            : High Efficiency Video Coding
Duration                                 : 1 h 1 min
Bit rate                                 : 372 kb/s
Width                                    : 1 280 pixels
Height                                   : 720 pixels
Display aspect ratio                     : 16:9
Frame rate mode                          : Constant
Frame rate                               : 29.970 (30000/1001) FPS
Color space                              : YUV
Chroma subsampling                       : 4:2:0
Bit depth                                : 8 bits
Scan type                                : Progressive
Bits/(Pixel*Frame)                       : 0.013
Stream size                              : 162 MiB (88%)
Writing library                          : x265 2.4:[Linux][GCC 6.3.0][64 bit] 8bit
Encoding settings                        : cpuid=1050111 / frame-threads=8 / wpp / no-pmode / no-pme / no-psnr / no-ssim / log-level=2 / input-csp=1 / input-res=1280x720 / interlace=0 / total-frames=0 / level-idc=0 / high-tier=1 / uhd-bd=0 / ref=3 / no-allow-non-conformance / no-repeat-headers / annexb / no-aud / no-hrd / info / hash=0 / no-temporal-layers / open-gop / min-keyint=25 / keyint=250 / bframes=4 / b-adapt=2 / b-pyramid / bframe-bias=0 / rc-lookahead=20 / lookahead-slices=4 / scenecut=40 / no-intra-refresh / ctu=64 / min-cu-size=8 / no-rect / no-amp / max-tu-size=32 / tu-inter-depth=1 / tu-intra-depth=1 / limit-tu=0 / rdoq-level=0 / dynamic-rd=0.00 / no-ssim-rd / signhide / no-tskip / nr-intra=0 / nr-inter=0 / no-constrained-intra / strong-intra-smoothing / max-merge=2 / limit-refs=3 / no-limit-modes / me=1 / subme=2 / merange=57 / temporal-mvp / weightp / no-weightb / no-analyze-src-pics / deblock=0:0 / sao / no-sao-non-deblock / rd=3 / no-early-skip / rskip / no-fast-intra / no-tskip-fast / no-cu-lossless / no-b-intra / rdpenalty=0 / psy-rd=2.00 / psy-rdoq=0.00 / no-rd-refine / analysis-mode=0 / no-lossless / cbqpoffs=0 / crqpoffs=0 / rc=crf / crf=25.0 / qcomp=0.60 / qpstep=4 / stats-write=0 / stats-read=0 / ipratio=1.40 / pbratio=1.30 / aq-mode=1 / aq-strength=1.00 / cutree / zone-count=0 / no-strict-cbr / qg-size=32 / no-rc-grain / qpmax=69 / qpmin=0 / sar=1 / overscan=0 / videoformat=5 / range=0 / colorprim=2 / transfer=2 / colormatrix=2 / chromaloc=0 / display-window=0 / max-cll=0,0 / min-luma=0 / max-luma=255 / log2-max-poc-lsb=8 / vui-timing-info / vui-hrd-info / slices=1 / opt-qp-pps / opt-ref-list-length-pps / no-multi-pass-opt-rps / scenecut-bias=0.05 / no-opt-cu-delta-qp / no-aq-motion / no-hdr / no-hdr-opt / no-dhdr10-opt / refine-level=5 / no-limit-sao
Encoded date                             : UTC 1904-01-01 00:00:00
Tagged date                              : UTC 1904-01-01 00:00:00

Audio
ID                                       : 2
Format                                   : AAC
Format/Info                              : Advanced Audio Codec
Format profile                           : HE-AAC / LC
Codec ID                                 : 40
Duration                                 : 1 h 1 min
Duration_LastFrame                       : -23 ms
Bit rate mode                            : Constant
Bit rate                                 : 43.0 kb/s
Channel(s)                               : 2 channels
Channel positions                        : Front: L R
Sampling rate                            : 48.0 kHz / 24.0 kHz
Frame rate                               : 23.438 FPS (1024 spf)
Compression mode                         : Lossy
Stream size                              : 18.8 MiB (10%)
Default                                  : Yes
Alternate group                          : 1
Encoded date                             : UTC 1904-01-01 00:00:00
Tagged date                              : UTC 1904-01-01 00:00:00


Embed to your sites:

<iframe src="https://indexdrama.com/view/edb7857e52187d8ece3148f0a7f583ad22dd5ffd/raw" width="650" height="250" scrolling="no" frameborder="0"></iframe>
More Episode Chocolate
Chocolate S01E01 720p HDTV AAC H.265-IXD
2020-03-13 13:55:09 225.2MB
Chocolate S01E02 720p HDTV AAC H.265-IXD
2020-03-13 05:58:46 257.61MB
Chocolate S01E03 720p HDTV AAC H.265-IXD
2020-03-13 05:23:01 207.32MB
Chocolate S01E04 720p HDTV AAC H.265-IXD
2020-03-13 18:56:41 218.55MB
Chocolate S01E05 720p HDTV AAC H.265-IXD
2020-03-13 14:56:40 222.37MB
Chocolate S01E06 720p HDTV AAC H.265-IXD
2020-03-13 10:56:19 220.1MB
Chocolate S01E07 720p HDTV AAC H.265-IXD
2020-03-13 09:50:49 189.64MB
Chocolate S01E08 720p HDTV AAC H.265-IXD
2020-03-13 08:05:22 210.02MB
Chocolate S01E09 720p HDTV AAC H.265-IXD
2020-03-13 06:42:43 224.4MB
Chocolate S01E10 720p HDTV AAC H.265-IXD
2020-03-13 15:53:11 208.49MB
Chocolate S01E12 720p HDTV AAC H.265-IXD
2020-03-13 17:52:37 203.55MB
Chocolate S01E13 720p HDTV AAC H.265-IXD
2020-03-13 12:50:47 184.68MB
Chocolate S01E14 720p HDTV AAC H.265-IXD
2020-03-13 07:23:36 224.95MB
Chocolate S01E15 720p HDTV AAC H.265-IXD
2020-03-13 11:53:21 205.02MB
Chocolate S01E16 720p HDTV AAC H.265-IXD
2020-03-13 09:04:30 240.45MB