Bad Love E69 720p HDTV AAC H.265-IXD

Bad Love E69 720p HDTV AAC H.265-IXD
Weekdays, 7:45 AM 40min 107.62MB

Overview:

"Bad Love" is the story of a woman who struggles amidst a big whirlwind of fate, and her unconditional motherly love. An accident has changed five men and women’s fates. Unlike conventional love stories with lovely memories and anecdotes, their love is judged and frowned upon. Despite the criticisms on them, they can’t stop themselves from desperately loving each other. Bad Love is a sad love drama that portrays true love that hurts.

Video Info

Thumbnail:

thumbnail

Media Info:

General
Complete name                            : /indexdrama.com/Bad Love E69 720p HDTV AAC H.265-IXD.mp4
Format                                   : MPEG-4
Format profile                           : Base Media
Codec ID                                 : isom (isom/iso2/mp41)
File size                                : 108 MiB
Duration                                 : 33 min 20 s
Overall bit rate                         : 451 kb/s
Encoded date                             : UTC 1904-01-01 00:00:00
Tagged date                              : UTC 1904-01-01 00:00:00
Writing application                      : Lavf57.71.100

Video
ID                                       : 1
Format                                   : HEVC
Format/Info                              : High Efficiency Video Coding
Format profile                           : [email protected]@Main
Codec ID                                 : hev1
Codec ID/Info                            : High Efficiency Video Coding
Duration                                 : 33 min 20 s
Bit rate                                 : 402 kb/s
Width                                    : 1 280 pixels
Height                                   : 720 pixels
Display aspect ratio                     : 16:9
Frame rate mode                          : Constant
Frame rate                               : 29.970 (30000/1001) FPS
Color space                              : YUV
Chroma subsampling                       : 4:2:0
Bit depth                                : 8 bits
Scan type                                : Progressive
Bits/(Pixel*Frame)                       : 0.015
Stream size                              : 95.9 MiB (89%)
Writing library                          : x265 2.4:[Linux][GCC 6.3.0][64 bit] 8bit
Encoding settings                        : cpuid=1050111 / frame-threads=8 / wpp / no-pmode / no-pme / no-psnr / no-ssim / log-level=2 / input-csp=1 / input-res=1280x720 / interlace=0 / total-frames=0 / level-idc=0 / high-tier=1 / uhd-bd=0 / ref=3 / no-allow-non-conformance / no-repeat-headers / annexb / no-aud / no-hrd / info / hash=0 / no-temporal-layers / open-gop / min-keyint=25 / keyint=250 / bframes=4 / b-adapt=2 / b-pyramid / bframe-bias=0 / rc-lookahead=20 / lookahead-slices=4 / scenecut=40 / no-intra-refresh / ctu=64 / min-cu-size=8 / no-rect / no-amp / max-tu-size=32 / tu-inter-depth=1 / tu-intra-depth=1 / limit-tu=0 / rdoq-level=0 / dynamic-rd=0.00 / no-ssim-rd / signhide / no-tskip / nr-intra=0 / nr-inter=0 / no-constrained-intra / strong-intra-smoothing / max-merge=2 / limit-refs=3 / no-limit-modes / me=1 / subme=2 / merange=57 / temporal-mvp / weightp / no-weightb / no-analyze-src-pics / deblock=0:0 / sao / no-sao-non-deblock / rd=3 / no-early-skip / rskip / no-fast-intra / no-tskip-fast / no-cu-lossless / no-b-intra / rdpenalty=0 / psy-rd=2.00 / psy-rdoq=0.00 / no-rd-refine / analysis-mode=0 / no-lossless / cbqpoffs=0 / crqpoffs=0 / rc=crf / crf=25.0 / qcomp=0.60 / qpstep=4 / stats-write=0 / stats-read=0 / ipratio=1.40 / pbratio=1.30 / aq-mode=1 / aq-strength=1.00 / cutree / zone-count=0 / no-strict-cbr / qg-size=32 / no-rc-grain / qpmax=69 / qpmin=0 / sar=1 / overscan=0 / videoformat=5 / range=0 / colorprim=2 / transfer=2 / colormatrix=2 / chromaloc=0 / display-window=0 / max-cll=0,0 / min-luma=0 / max-luma=255 / log2-max-poc-lsb=8 / vui-timing-info / vui-hrd-info / slices=1 / opt-qp-pps / opt-ref-list-length-pps / no-multi-pass-opt-rps / scenecut-bias=0.05 / no-opt-cu-delta-qp / no-aq-motion / no-hdr / no-hdr-opt / no-dhdr10-opt / refine-level=5 / no-limit-sao
Encoded date                             : UTC 1904-01-01 00:00:00
Tagged date                              : UTC 1904-01-01 00:00:00

Audio
ID                                       : 2
Format                                   : AAC
Format/Info                              : Advanced Audio Codec
Format profile                           : HE-AAC / LC
Codec ID                                 : 40
Duration                                 : 33 min 20 s
Duration_LastFrame                       : -1 ms
Bit rate mode                            : Constant
Bit rate                                 : 43.0 kb/s
Channel(s)                               : 2 channels
Channel positions                        : Front: L R
Sampling rate                            : 48.0 kHz / 24.0 kHz
Frame rate                               : 23.438 FPS (1024 spf)
Compression mode                         : Lossy
Stream size                              : 10.3 MiB (10%)
Default                                  : Yes
Alternate group                          : 1
Encoded date                             : UTC 1904-01-01 00:00:00
Tagged date                              : UTC 1904-01-01 00:00:00


Embed to your sites:

<iframe src="https://indexdrama.com/view/fdce5399d89651e3bad7e773e2c785356a67072a/raw" width="650" height="250" scrolling="no" frameborder="0"></iframe>
More Episode Bad Love (2019)
Bad Love E100 720p HDTV AAC H.265-IXD
2020-04-21 04:43:32 120.97MB
Bad Love E101 720p HDTV AAC H.265-IXD
2020-04-21 23:27:44 111.77MB
Bad Love E102 720p HDTV AAC H.265-IXD
2020-04-23 02:28:51 118.53MB
Bad Love E103 720p HDTV AAC H.265-IXD
2020-04-23 16:28:34 120.45MB
Bad Love E104 720p HDTV AAC H.265-IXD
2020-04-24 14:30:22 108.6MB
Bad Love E105 720p HDTV AAC H.265-IXD
2020-04-27 17:28:49 113.74MB
Bad Love E106 720p HDTV AAC H.265-IXD
2020-04-28 17:28:57 130.74MB
Bad Love E107 720p HDTV AAC H.265-IXD
2020-04-29 18:31:08 137.22MB
Bad Love E108 720p HDTV AAC H.265-IXD
2020-04-30 14:28:45 128.58MB
Bad Love E109 720p HDTV AAC H.265-IXD
2020-05-01 14:29:30 130.9MB
Bad Love E110 720p HDTV AAC H.265-IXD
2020-05-04 14:28:59 126.72MB
Bad Love E111 720p HDTV AAC H.265-IXD
2020-05-05 17:28:38 123.03MB
Bad Love E112 720p HDTV AAC H.265-IXD
2020-05-06 13:28:42 119.22MB
Bad Love E113 720p HDTV AAC H.265-IXD
2020-05-07 14:28:32 117.75MB
Bad Love E114 720p HDTV AAC H.265-IXD
2020-05-08 14:29:11 108.1MB
Bad Love E115 720p HDTV AAC H.265-IXD
2020-05-11 14:29:53 113.86MB
Bad Love E116 720p HDTV AAC H.265-IXD
2020-05-12 15:10:45 119.96MB
Bad Love E117 720p HDTV AAC H.265-IXD
2020-05-13 13:29:36 114.34MB
Bad Love E118 720p HDTV AAC H.265-IXD
2020-05-14 14:28:10 109.98MB
Bad Love E119 720p HDTV AAC H.265-IXD
2020-05-15 13:42:15 108.34MB
Bad Love E120 720p HDTV AAC H.265-IXD
2020-05-18 13:27:23 108.03MB
Bad Love E121 720p HDTV AAC H.265-IXD
2020-05-19 13:28:42 116.17MB
Bad Love E122 720p HDTV AAC H.265-IXD
2020-05-20 14:27:48 102.95MB
Bad Love E123 720p HDTV AAC H.265-IXD
2020-05-21 13:28:43 105MB
Bad Love E124 720p HDTV AAC H.265-IXD
2020-05-22 13:27:26 96.63MB
Bad Love E125 720p HDTV AAC H.265-IXD
2020-05-25 17:28:31 107.24MB
Bad Love E126 720p HDTV AAC H.265-IXD
2020-05-26 13:39:50 115.51MB
Bad Love E127 720p HDTV AAC H.265-IXD
2020-05-27 13:28:14 103.34MB
Bad Love E128 720p HDTV AAC H.265-IXD
2020-05-28 14:30:33 130.49MB
Bad Love E129 720p HDTV AAC H.265-IXD
2020-05-29 14:30:43 138.15MB
Bad Love E62 720p HDTV AAC H.265-IXD
2020-03-05 16:33:03 106.68MB
Bad Love E63 720p HDTV AAC H.265-IXD
2020-03-06 05:28:20 102.59MB
Bad Love E64 720p HDTV AAC H.265-IXD
2020-03-05 09:48:15 105.19MB
Bad Love E65 720p HDTV AAC H.265-IXD
2020-03-04 17:27:22 92.44MB
Bad Love E66 720p HDTV AAC H.265-IXD
2020-03-05 10:28:37 114.56MB
Bad Love E67 720p HDTV AAC H.265-IXD
2020-03-04 23:28:35 114.75MB
Bad Love E68 720p HDTV AAC H.265-IXD
2020-03-06 02:47:37 117.25MB
Bad Love E70 720p HDTV AAC H.265-IXD
2020-03-10 01:28:57 113.13MB
Bad Love E71 720p HDTV AAC H.265-IXD
2020-03-11 01:28:33 110MB
Bad Love E72 720p HDTV AAC H.265-IXD
2020-03-11 21:28:40 109.49MB
Bad Love E73 720p HDTV AAC H.265-IXD
2020-03-13 01:35:16 116.92MB
Bad Love E74 720p HDTV AAC H.265-IXD
2020-03-13 23:29:53 127.09MB
Bad Love E75 720p HDTV AAC H.265-IXD
2020-03-17 00:28:16 100.26MB
Bad Love E76 720p HDTV AAC H.265-IXD
2020-03-17 23:28:39 112.44MB
Bad Love E77 720p HDTV AAC H.265-IXD
2020-03-19 03:28:49 114.53MB
Bad Love E78 720p HDTV AAC H.265-IXD
2020-03-20 00:27:50 95.72MB
Bad Love E79 720p HDTV AAC H.265-IXD
2020-03-20 22:28:38 113.95MB
Bad Love E80 720p HDTV AAC H.265-IXD
2020-03-23 21:28:41 110.08MB
Bad Love E81 720p HDTV AAC H.265-IXD
2020-03-24 22:29:28 133.28MB
Bad Love E82 720p HDTV AAC H.265-IXD
2020-03-26 00:29:25 118.01MB
Bad Love E83 720p HDTV AAC H.265-IXD
2020-03-27 00:29:33 120.59MB
Bad Love E84 720p HDTV AAC H.265-IXD
2020-03-27 20:29:43 118.74MB
Bad Love E85 720p HDTV AAC H.265-IXD
2020-03-31 00:29:38 121.69MB
Bad Love E86 720p HDTV AAC H.265-IXD
2020-03-31 23:28:45 120.62MB
Bad Love E87 720p HDTV AAC H.265-IXD
2020-04-01 22:28:43 111.52MB
Bad Love E88 720p HDTV AAC H.265-IXD
2020-04-02 23:29:16 119.56MB
Bad Love E89 720p HDTV AAC H.265-IXD
2020-04-03 22:29:41 124.81MB
Bad Love E90 720p HDTV AAC H.265-IXD
2020-04-07 00:28:17 108.48MB
Bad Love E91 720p HDTV AAC H.265-IXD
2020-04-07 22:28:21 106.28MB
Bad Love E92 720p HDTV AAC H.265-IXD
2020-04-09 00:27:55 104.5MB
Bad Love E93 720p HDTV AAC H.265-IXD
2020-04-10 01:28:18 107.01MB
Bad Love E94 720p HDTV AAC H.265-IXD
2020-04-11 01:28:28 108.01MB
Bad Love E95 720p HDTV AAC H.265-IXD
2020-04-14 01:28:47 124.8MB
Bad Love E96 720p HDTV AAC H.265-IXD
2020-04-14 23:27:51 116.33MB
Bad Love E97 720p HDTV AAC H.265-IXD
2020-04-15 23:27:53 109.86MB
Bad Love E98 720p HDTV AAC H.265-IXD
2020-04-16 22:28:23 120.12MB
Bad Love E99 720p HDTV AAC H.265-IXD
2020-04-17 22:42:18 110.11MB